Важное объявление!
У Нас Все раздачи мультитрекерные, при нуле пиров в релизах, можете смело вставать на закачку!
 
Автор Сообщение

HUNTER

Стаж:
4 года 4 месяца
Сообщений:
56853

Репутация: 101

[+] [-]
Вне форума [Профиль] [ЛС]

Космические войны / The Universe. Space Wars
Год выпуска: 2009
Страна: США
Жанр: научно-фантастический боевик
Продолжительность: 45 минут
Перевод: Slavnus Spacedust & ua220
Озвучено: (закадрово в 1 голос) Spacedust Семпл- Скачать
Русские субтитры: нет
Описание: Какую пользу для воин будущего несёт космос?
Какое оружие через 100 лет будет самым эффективным?
Что будет, если взорвать атомную бомбу над Соединёнными штатами?
Что будет представлять из себя Луна в будущем?
И во что превратится Марс?
Предупреждение: Детям: просмотр только с родителями.
Качество: SATRip
Формат: MKV
Видео кодек: H.264
Аудио кодек: AC3
Видео: 24fps 3000Kbps 1280х720
Аудио: 448Kbps 5Channels 48000Hz

Скриншоты

MediaInfo

GeneralUnique ID : 194490162146650701101087473041289508310 (0x92517155E1A433ED9B827F8FC20FF5D6)Complete name : M:\!!!SPACE SPACE SPACE!!!\01.Space\02.USA\+ The Universe\2009 - S04\The Universe S04E08 Space Wars.mkvFormat : MatroskaFormat version : Version 1File size : 1.11 GiBDuration : 44mn 59sOverall bit rate : 3 541 KbpsEncoded date : UTC 2009-10-27 21:31:37Writing application : mkvmerge v2.2.0 ('Turn It On Again') built on Mar 4 2008 12:58:26Writing library : libebml v0.7.7 + libmatroska v0.8.1
VideoID : 1Format : AVCFormat/Info : Advanced Video CodecFormat profile : High@L3.1Format settings, CABAC : YesFormat settings, ReFrames : 5 framesCodec ID : V_MPEG4/ISO/AVCDuration : 44mn 59sBit rate : 3 090 KbpsWidth : 1 280 pixelsHeight : 720 pixelsDisplay aspect ratio : 16:9Frame rate mode : ConstantFrame rate : 23.976 fpsColor space : YUVChroma subsampling : 4:2:0Bit depth : 8 bitsScan type : ProgressiveBits/(Pixel*Frame) : 0.140Stream size : 973 MiB (85%)Writing library : x264 core 68 r1184twEncoding settings : cabac=1 / ref=5 / deblock=1:0:0 / analyse=0x3:0x133 / me=umh / subme=8 / psy_rd=1.0:0.0 / mixed_ref=1 / me_range=16 / chroma_me=1 / trellis=1 / 8x8dct=1 / cqm=0 / deadzone=21,11 / chroma_qp_offset=-2 / threads=6 / nr=0 / decimate=1 / mbaff=0 / bframes=3 / b_pyramid=1 / b_adapt=2 / b_bias=0 / direct=3 / wpredb=1 / keyint=240 / keyint_min=24 / scenecut=40 / rc=2pass / bitrate=3090 / ratetol=1.0 / qcomp=0.60 / qpmin=10 / qpmax=51 / qpstep=4 / cplxblur=20.0 / qblur=0.5 / ip_ratio=1.40 / pb_ratio=1.30 / aq=1:1.00Language : EnglishDefault : YesForced : No
AudioID : 2Format : AC-3Format/Info : Audio Coding 3Mode extension : CM (complete main)Format settings, Endianness : BigCodec ID : A_AC3Duration : 44mn 59sBit rate mode : ConstantBit rate : 448 KbpsChannel(s) : 5 channelsChannel positions : Front: L C R, Side: L RSampling rate : 48.0 KHzBit depth : 16 bitsCompression mode : LossyStream size : 144 MiB (13%)Default : YesForced : No

_________________
Показать сообщения:    

Текущее время: Сегодня 13:57

Часовой пояс: GMT



Вы не можете начинать темы
Вы не можете отвечать на сообщения
Вы не можете редактировать свои сообщения
Вы не можете удалять свои сообщения
Вы не можете голосовать в опросах
Вы не можете прикреплять файлы к сообщениям
Вы не можете скачивать файлы
Наши партнеры: интернет магазин Ивановского трикотажа textilla.ru