Важное объявление!
У Нас Все раздачи мультитрекерные, при нуле пиров в релизах, можете смело вставать на закачку!
 
Автор Сообщение

HUNTER

Стаж:
4 года 4 месяца
Сообщений:
56842

Репутация: 101

[+] [-]
Вне форума [Профиль] [ЛС]

Космическая экспедиция (123 серии из 150) / Nostra nau
Дата/Год выпуска: 2002
Страна: Испания, TVC SA-BENECE SL
Жанр: Документальный, научно-популярный, познавательный,
Продолжительность: 123 x ~ 00:04:50
Перевод: Профессиональный (дублированный)
Русские субтитры: нет
Оригинальная аудиодорожка: нет
Описание: Хотите узнать, что скрывает обратная сторона Луны, какого размера Вселенная, где находится Море Спокойствия, как ориентироваться по звездам, и почему на Солнце есть пятна? Каждый из эпизодов сериала раскрывает новую обширную тему. Вы познакомитесь с представлениями об астрономии древних народов, с известными личностями, их открытиями и изобретениями. Большое внимание в сериале уделено рассказам о планетах, звездах, туманностях и галактиках. Другие серии посвящены крупнейшим обсерваториям мира, истории запуска и назначении летательных аппаратов. Совершите эту космическую экспедицию вместе с нами, и вы получите полное представление об истории изучения и освоения космоса, начиная с древних астрономов и заканчивая современными исследованиями!
Доп. информация: http://nostranau.net/
Сэмпл: http://sendfile.su/1055955
качество: SATRip
формат: AVI
Видео: Xvid 704x528 25fps 1 500 Kbps
Аудио: AC3 48000Hz stereo 192kbps

Список выпусков/серий

003. Стоунхендж
004. Китайская астрономия
005. Затмения
006. Арабская астрономия
007. Астрономия Майя
008. Альфонсо Десятый
009. Николай Коперник
010. Исаак Ньютон
011. Леверье и Фламмарион
012. Астрономы-художники
013. Астрономическая мода
014. Ошибки
015. Парад планет
016. Свет
017. Обсерватории
018. Телескоп Галилея
019. Телескоп Ньютона
020. Большие телескопы
021. Фотографии в астрономии
022. Радиоастрономия
023. Радиотелескопы
024. Спектрография
025. Мечта о полётах
026. Спутник
027. Пионер-10
028. Телескоп Хаббл
029. Работа Хаббла
030. Межпланетная станция Кассини
031. МКС
032. Взгляд издалека
033. Влияние небесных тел
034. Вращение Земли
035. Кратеры
036. Ориентирование по звёздам
037. Равноденствие
038. Полярное сияние
039. История Луны
040. Лунные циклы
041. Расстояние до Луны
042. Взаимодействие Луны и Земли
043. Пепельный свет
044. Затмения
045. Либрация Луны
046. Происхождение лунных кратеров
047. Поверхность Луны
048. Море Спокойствия

049. Обратная сторона Луны
050. Загадки Луны
051. Лунные иллюзии
052. Солнце
053. Эклиптика
054. Фотосфера
055. Солнечные пятна
056. Солнечная активность
057. Полное солнечное затмение
058. Окончание жизни Солнца
059. Вода и лёд
060. Горы
061. Спутники
062. Взгляд со спутников
063. Меркурий
064. Особенности Меркурия
065. Венера
066. Марс
067. Лица Марса
068. Марсианские бури
069. Юпитер
070. Юпитер и скорость света
071. Спутники Юпитера
072. Кольца Юпитерa

073. Ио
074. Сатурн
075. Атмосфера Сатурна
076. Кольца Сатурна
077. Загадка кольца Сатурна
078. Япет

079. Титан
080. Уран и Нептун
081. Открытие Плутона
082. Плутон
083. Затмения космических объектов
084. Экзопланеты

085. Астероиды
086. Формы космических тел
087. Эта-Аквариды
088. Геминиды
089. Ориониды
090. Кометы

091. Падение комет
092. Новые кометы
093. Орион
094. Туманности и галактики
095. Звезда Эта Киля
096. Большая медведица
097. Близнецы
098. Сириус
099. Возничий
100. Созвездие «Телец»
101. Созвездие «Рак»
102. Созвездие «Гончие псы»
103. Созвездие «Центавр»
104. Созвездие «Лев»
105. Созвездие «Лебедь»
106. Южная и Северная короны
107. Яркость звёзд
108. Звёздная величина
109. Мерцание звёзд
110. Движение звёзд
111. Расстояния до звёзд
112. Формы звёзд
113. Цвета во Вселенной
114. Эволюция звёзд

115. Сверхновая звезда
116. Звёздные каталоги
117. Каталог Месье
118. Рассеянные звёздные скопления
119. Полярная звезда
120. Вега
121. Звёздный зоопарк
122. Млечный путь летом
123. Зимнее небо
124. Бетельгейзе
125. Туманность Сова
126. Туманность Улитка
127. Пыль
128. Каталог Барнарда
129. Плеяды
130. Классы галактик
131. Столкновения галактик
132. Локальная группа
133. Млечный путь
134. Созвездие «Дева» и «Волосы Вероники»
135. Созвездие «Дева», Квазары
136. Гамма-источники
137. Галактика М51
138. Галактики М81 и М82
139. Галактика М87
140. Свет галактик
141. Музыка Вселенной
142. Траектории галактик
143. Протяженность Вселенной
144. Соотношение размеров планет
145. Размеры Вселенной
146. Парадокс Ольберса
147. Единая модель Вселенной
148. Пространство и время
149. Чёрные дыры
150. Начало и конец

MediaInfo

H:\Фильмы XviD NEW\Kosmos\Kosmicheskaja.jekspedicija.2002.XviD.SATRip.Thunder\Kosmicheskaja.jekspedicija.(003.seriya.iz.150).Stounhendzh.2002.XviD.SATRip.avi General Complete name : H:\Фильмы XviD NEW\Kosmos\Kosmicheskaja.jekspedicija.2002.XviD.SATRip.Thunder\Kosmicheskaja.jekspedicija.(003.seriya.iz.150).Stounhendzh.2002.XviD.SATRip.avi Format : AVI Format/Info : Audio Video Interleave File size : 61.3 MiB Duration : 5mn 1s Overall bit rate : 1 702 Kbps Director : SATRip by Thunder Writing application : VirtualDubMod 1.5.10.3 | www.virtualdub-fr.org || (build 2550/release) Original source form/Name : Documentary Video #0 ID : 0 Format : MPEG-4 Visual Format profile : Advanced Simple@L5 Format settings, BVOP : Yes Format settings, QPel : No Format settings, GMC : No warppoints Format settings, Matrix : Default (H.263) Codec ID : XVID Codec ID/Hint : XviD Duration : 5mn 1s Bit rate : 1 500 Kbps Width : 704 pixels Height : 528 pixels Display aspect ratio : 4:3 Frame rate : 25.000 fps Color space : YUV Chroma subsampling : 4:2:0 Bit depth : 8 bits Scan type : Progressive Bits/(Pixel*Frame) : 0.161 Stream size : 54.0 MiB (88%) Writing library : XviD 1.2.1 (UTC 2008-12-04) Audio #1 ID : 1 Format : AC-3 Format/Info : Audio Coding 3 Mode extension : CM (complete main) Codec ID : 2000 Duration : 5mn 1s Bit rate mode : Constant Bit rate : 192 Kbps Channel(s) : 2 channels Channel positions : Front: L R Sampling rate : 48.0 KHz Bit depth : 16 bits Stream size : 6.91 MiB (11%) Alignment : Split accross interleaves Interleave, duration : 40 ms (1.00 video frame) Interleave, preload duration : 500 ms

Скриншоты



_________________
Показать сообщения:    

Текущее время: Сегодня 18:21

Часовой пояс: GMT



Вы не можете начинать темы
Вы не можете отвечать на сообщения
Вы не можете редактировать свои сообщения
Вы не можете удалять свои сообщения
Вы не можете голосовать в опросах
Вы не можете прикреплять файлы к сообщениям
Вы не можете скачивать файлы
Наши партнеры: интернет магазин Ивановского трикотажа textilla.ru