Важное объявление!
У Нас Все раздачи мультитрекерные, при нуле пиров в релизах, можете смело вставать на закачку!
 
Автор Сообщение

HUNTER

Стаж:
4 года 4 месяца
Сообщений:
56842

Репутация: 101

[+] [-]
Вне форума [Профиль] [ЛС]

Коррина, Коррина / Corrina, Corrina
Страна: США
Студия: New Line Cinema
Жанр: драма, мелодрама, комедия
Год выпуска: 1994
Продолжительность: 01:55:31
Перевод: Профессиональный (многоголосый закадровый) СТС
Cубтитры: английские, русские (на непереведённые места)
Оригинальная аудиодорожка: английский
Режиссер: Джесси Нельсон / Jessie Nelson
В ролях: Вупи Голдберг, Норин Хеннесси, Люси Уэбб, Эрика Йон, Тина Мажорино, Рэй Лиотта, Дон Амичи, Ларри Миллер, Джоан Кьюсак, Джун С. Эллис
Описание: У маленькой девочки Молли умерла мама, и она осталась одна с папой, сочиняющим детские песенки. Девочка была настолько потрясена этим, что перестала говорить. Папа нанимал ей разных нянек, но по объявлению приходили какие-то монстры и душевнобольные…
Доп. информация: Так как в ТВрипе запись фильма началась не с самого начала, то в начале фильма не хватает перевода начальных титров и небольшого диалога на несколько слов(всего полторы минуты), поэтому они переведены субтитрами.

Sample
Тип релиза: WEB-DL 720p
Контейнер: MKV
Видео: MPEG4 AVC Video, H264, 16:9, 1280x690, 23.976 fps, 3993 kbps
Аудио: Russian (AC3, 2 ch, 192 kbps, 16 bits, 48.0 KHz) - MVO
Аудио 2: English (AC3, 6 ch, 448 kbps, 16 bits, 48.0 KHz) - оригинал
Формат субтитров: softsub (SRT)

MediaInfo

General
Unique ID : 185679923035188468219675716849318070345 (0x8BB0A702ABA63B14A4C2D6D0D7658849)
Complete name : K:\Corrina, Corrina 1994 WEB-DL 720p.mkv
Format : Matroska
Format version : Version 4 / Version 2
File size : 3.81 GiB
Duration : 1h 55mn
Overall bit rate : 4 727 Kbps
Encoded date : UTC 2015-08-11 20:58:31
Writing application : mkvmerge v6.1.0 ('Old Devil') built on Mar 2 2013 14:32:37
Writing library : libebml v1.3.0 + libmatroska v1.4.0
Video
ID : 1
Format : AVC
Format/Info : Advanced Video Codec
Format profile : High@L3.1
Format settings, CABAC : No
Format settings, ReFrames : 2 frames
Codec ID : V_MPEG4/ISO/AVC
Duration : 1h 55mn
Bit rate : 3 993 Kbps
Width : 1 280 pixels
Height : 690 pixels
Display aspect ratio : 1.85:1
Frame rate mode : Constant
Frame rate : 23.976 fps
Color space : YUV
Chroma subsampling : 4:2:0
Bit depth : 8 bits
Scan type : Progressive
Bits/(Pixel*Frame) : 0.189
Stream size : 3.22 GiB (84%)
Language : English
Default : Yes
Forced : No
Color primaries : BT.709
Transfer characteristics : BT.709
Matrix coefficients : BT.709
Audio #1
ID : 2
Format : AC-3
Format/Info : Audio Coding 3
Mode extension : CM (complete main)
Format settings, Endianness : Big
Codec ID : A_AC3
Duration : 1h 55mn
Bit rate mode : Constant
Bit rate : 192 Kbps
Channel count : 2 channels
Channel positions : Front: L R
Sampling rate : 48.0 KHz
Bit depth : 16 bits
Compression mode : Lossy
Stream size : 159 MiB (4%)
Language : Russian
Default : Yes
Forced : Yes
Audio #2
ID : 3
Format : AC-3
Format/Info : Audio Coding 3
Mode extension : CM (complete main)
Format settings, Endianness : Big
Codec ID : A_AC3
Duration : 1h 55mn
Bit rate mode : Constant
Bit rate : 448 Kbps
Channel count : 6 channels
Channel positions : Front: L C R, Side: L R, LFE
Sampling rate : 48.0 KHz
Bit depth : 16 bits
Compression mode : Lossy
Stream size : 370 MiB (9%)
Language : English
Default : No
Forced : No
Text #1
ID : 4
Format : UTF-8
Codec ID : S_TEXT/UTF8
Codec ID/Info : UTF-8 Plain Text
Title : forced
Language : Russian
Default : Yes
Forced : Yes
Text #2
ID : 5
Format : UTF-8
Codec ID : S_TEXT/UTF8
Codec ID/Info : UTF-8 Plain Text
Language : English
Default : No
Forced : No
Menu
00:00:00.000 : en:1.
00:05:48.000 : en:2.
00:07:49.000 : en:3.
00:11:16.000 : en:4.
00:16:42.000 : en:5.
00:22:43.000 : en:6.
00:31:46.000 : en:7.
00:34:41.000 : en:8.
00:39:26.000 : en:9.
00:41:04.000 : en:10.
00:45:48.000 : en:11.
00:47:20.000 : en:12.
00:55:49.000 : en:13.
00:59:47.000 : en:14.
01:02:31.000 : en:15.
01:06:28.000 : en:16.
01:07:41.000 : en:17.
01:10:48.000 : en:18.
01:17:38.000 : en:19.
01:21:17.000 : en:20.
01:23:47.000 : en:21.
01:27:37.000 : en:22.
01:35:54.000 : en:23.
01:39:01.000 : en:24.
01:46:11.000 : en:25.
01:49:57.000 : en:26.

Скриншоты


_________________
Показать сообщения:    

Текущее время: Сегодня 18:50

Часовой пояс: GMT



Вы не можете начинать темы
Вы не можете отвечать на сообщения
Вы не можете редактировать свои сообщения
Вы не можете удалять свои сообщения
Вы не можете голосовать в опросах
Вы не можете прикреплять файлы к сообщениям
Вы не можете скачивать файлы
Наши партнеры: интернет магазин Ивановского трикотажа textilla.ru