Важное объявление!
У Нас Все раздачи мультитрекерные, при нуле пиров в релизах, можете смело вставать на закачку!
 
Автор Сообщение

HUNTER

Стаж:
4 года 4 месяца
Сообщений:
56755

Репутация: 101

[+] [-]
Вне форума [Профиль] [ЛС]

Год выпуска: 2001
Страна: США
Жанр: фэнтези, комедия, семейный, мультфильм
Продолжительность: 01:22:06
Перевод: дубляж
Режиссёр: Пит Доктер, Дэвид Силверман, Ли Анкрич / Pete Docter, David Silverman, Lee Unkrich
Роли озвучивали:
Джон Гудмен (Сергей Паршин), Билли Кристал (Олег Куликович), Мэри Гиббс (Лидия Семёнова), Стив Бушеми (Евгений Дятлов), Джеймс Коберн (Борис Улитин), Дженнифер Тилли (Татьяна Михалевкина), Боб Питерсон (Наталья Данилова), Джон Ратценбергер (Артур Ваха), Фрэнк Оз, Дэниэл Джерсон, Стив Сусскинд, Бонни Хант, Джефф Пиджон, Сэмюэл Лорд Блэк, Джек Эйнджел, Боб Берген, Роджер Бампасс, Джино Конфорти
В данной раздаче представлена редкая полноэкранная версия с локализованным видеорядом, помимо локализации и полноэкранного изображения, в мультфильме перерисованы некоторые объекты и фоны, в некоторых сценах персонажи расположены немного по другому, в отличие от широкоэкранной версии.
Релиз:
Качество: DVB
Формат: MPEG-TS
Видео: MPEG Video, 720x576 (4:3), 25.000 fps, ~5 719 Kbps
Аудио: MPEG Audio, 48000 Hz, stereo, 256 kbps
Субтитры: отсутствуют

Отличия FullScreen от WideScreen





Отличия русификации СТС от русификации канала Дисней



Подробные технические данные

General
ID : 16 (0x10)
Complete name : I:\ПОЛНОМЕТРАЖНЫЕ МУЛЬТФИЛЬМЫ\СТС\Корпорация монстров (4х3 СТС).mpg
Format : MPEG-TS
File size : 3.61 GiB
Duration : 1h 22mn
Overall bit rate : 6 288 Kbps
Video
ID : 44 (0x2C)
Menu ID : 3 (0x3)
Format : MPEG Video
Format version : Version 2
Format profile : Main@Main
Format settings, BVOP : Yes
Format settings, Matrix : Default
Format settings, GOP : M=2, N=12
Codec ID : 2
Duration : 1h 22mn
Bit rate mode : Variable
Bit rate : 5 719 Kbps
Nominal bit rate : 15.0 Mbps
Width : 720 pixels
Height : 576 pixels
Display aspect ratio : 4:3
Frame rate : 25.000 fps
Standard : PAL
Color space : YUV
Chroma subsampling : 4:2:0
Bit depth : 8 bits
Scan type : Interlaced
Scan order : Top Field First
Compression mode : Lossy
Bits/(Pixel*Frame) : 0.552
Stream size : 3.28 GiB (91%)
Writing library : (c) 1998-2010 Womble Multimedia, Inc. / MPEG Video Wizard DVD 5.0.0.114 (01/2010) / Jul 12 2010
Audio
ID : 42 (0x2A)
Menu ID : 3 (0x3)
Format : MPEG Audio
Format version : Version 1
Format profile : Layer 2
Mode : Dual mono
Codec ID : 3
Duration : 1h 22mn
Bit rate mode : Constant
Bit rate : 256 Kbps
Channel(s) : 2 channels
Sampling rate : 48.0 KHz
Compression mode : Lossy
Stream size : 150 MiB (4%)

Скриншоты


_________________
Показать сообщения:    

Текущее время: Сегодня 18:09

Часовой пояс: GMT



Вы не можете начинать темы
Вы не можете отвечать на сообщения
Вы не можете редактировать свои сообщения
Вы не можете удалять свои сообщения
Вы не можете голосовать в опросах
Вы не можете прикреплять файлы к сообщениям
Вы не можете скачивать файлы