Важное объявление!
У Нас Все раздачи мультитрекерные, при нуле пиров в релизах, можете смело вставать на закачку!
 
Автор Сообщение

HUNTER

Стаж:
4 года 4 месяца
Сообщений:
56790

Репутация: 101

[+] [-]
Вне форума [Профиль] [ЛС]

Корпорация Монстров / Monsters, Inc.
Год выпуска: 2001
Страна: США
Жанр: мультфильм, фэнтези, комедия, приключения, семейный
Продолжительность: 01:32:15
Перевод: Профессиональный (многоголосый закадровый) - Cygnus Video
Русские субтитры: нет
Режиссёр: Пит Доктер / Pete Docter, Дэвид Силверман / David Silverman, Ли Анкрич / Lee Unkcrich
Роли озвучивали: Джон Гудман (James P. «Sulley» Sullivan), Билли Кристал (Mike Wazowski), Мэри Гиббс (Boo), Стив Бушеми (Randall Boggs), Джеймс Коберн (Henry J. Waternoose), Дженнифер Тилли (Celia), Боб Питерсон (Roz), Джон Ратценбергер (The Abominable Snowman), Фрэнк Оз (Fungus), Дэниел Герсон (Needleman / Smitty)-Мировая премьера: 28 октября 2001-Описание: Склизский гад в сливном бачке, мохнатый зверь, похожий на чудовище из «Аленького цветочка», гигантские мокрицы под кроватью — все они существуют на самом деле. Все, что им нужно — пугать детей, потому что из детских криков они получают электричество. Полнометражный мультфильм рассказывает о кризисах в мире монстров, их жизни. Но однажды вся мирная жизнь монстров оказывается под угрозой: в их мир попадает ребенок. А с детьми столько хлопот, что они могут довести даже монстров.-Доп. информация:
За исходник видео большое спасибо dragomire.
За оцифровку перевода с видеокассеты от пиратской видео-компании Cygnus Video большое спасибо серый75.
Синхронизация перевода - JUSTKANT.-Информация о переводе:
Данный перевод на трекере появляется впервые.-

MPAA: G - Нет возрастных ограничений-Качество: BDRip
Формат: AVI -> //SAMPLE//
Видео: XviD, 720x384 (1,85:1), 23.976 fps, 1912 kbps avg
Аудио:
1 - 48 khz, AC3 Dolby Digital, 2/0 (L,R) ch, ~192 kbps [Cygnus Video] VHSRip
Субтитры: отсутствуют

Подробные технические данные

ОбщееПолное имя : E:\Корпорация Монстов (Cygnus Video).aviФормат : AVIФормат/Информация : Audio Video InterleaveРазмер файла : 1,36 ГбайтПродолжительность : 1 ч. 32 м.Общий поток : 2114 Кбит/секПрограмма кодирования : VirtualDubMod 1.5.10.2 (build 2540/release)Библиотека кодирования : VirtualDubMod build 2540/release
ВидеоИдентификатор : 0Формат : MPEG-4 VisualПрофиль формата : Advanced Simple@L5Параметр BVOP формата : 1Параметр QPel формата : НетПараметр GMC формата : Без точки переходаПараметр матрицы формата : ВыборочнаяИдентификатор кодека : XVIDИдентификатор кодека/Подсказка : XviDПродолжительность : 1 ч. 32 м.Битрейт : 1912 Кбит/секШирина : 720 пикселейВысота : 384 пикселяСоотношение сторон : 1,85:1Частота кадров : 23,976 кадра/секЦветовое пространство : YUVСубдискретизация насыщенности : 4:2:0Битовая глубина : 8 битТип развёртки : ПрогрессивнаяМетод сжатия : С потерямиБит/(Пиксели*Кадры) : 0.288Размер потока : 1,23 Гбайт (90%)Библиотека кодирования : XviD 1.2.1 (UTC 2008-12-04)
АудиоИдентификатор : 1Формат : AC-3Формат/Информация : Audio Coding 3Расширение режима : CM (complete main)Параметр Endianness формата : BigИдентификатор кодека : 2000Продолжительность : 1 ч. 32 м.Вид битрейта : ПостоянныйБитрейт : 192 Кбит/секКаналы : 2 каналаРасположение каналов : Front: L RЧастота : 48,0 КГцБитовая глубина : 16 битМетод сжатия : С потерямиРазмер потока : 127 Мбайт (9%)Выравнивание : Разделение по промежуткамПродолжительность промежутка : 42 мс. (1,00 видеокадр)Время предзагрузки промежутка : 500 мс.

Скриншоты



_________________
Показать сообщения:    

Текущее время: Сегодня 10:28

Часовой пояс: GMT



Вы не можете начинать темы
Вы не можете отвечать на сообщения
Вы не можете редактировать свои сообщения
Вы не можете удалять свои сообщения
Вы не можете голосовать в опросах
Вы не можете прикреплять файлы к сообщениям
Вы не можете скачивать файлы