Важное объявление!
У Нас Все раздачи мультитрекерные, при нуле пиров в релизах, можете смело вставать на закачку!
 
Автор Сообщение

HUNTER

Стаж:
4 года 4 месяца
Сообщений:
56734

Репутация: 101

[+] [-]
Вне форума [Профиль] [ЛС]

Корпорация монстров / Monsters, Inc.
Страна: США
Жанр: фэнтези, комедия, приключения
Продолжительность: 01:32:15
Год выпуска: 2001
Перевод 1: Профессиональный (дублированный)
Перевод 2: Профессиональный (многоголосый закадровый)
Перевод 3: Авторский (одноголосый закадровый) Сергей Визгунов
Русские субтитры: есть
Режиссёр: Пит Доктер / Pete Docter, Дэвид Силверман / David Silverman, Ли Анкрич / Lee Unkrich
Описание: Склизский гад в сливном бачке, мохнатый зверь, похожий на чудовище из «Аленького цветочка», гигантские мокрицы под кроватью — все они существуют на самом деле. Все, что им нужно — пугать детей, потому что из детских криков они получают электричество.
Полнометражный мультфильм рассказывает о кризисах в мире монстров, их жизни. Но однажды вся мирная жизнь монстров оказывается под угрозой: в их мир попадает ребенок. А с детьми столько хлопот, что они могут довести даже монстров.
Доп. информация: За многоголосый перевод спасибо Lalola, за перевод Визгунова спасибо Krasnovv.
Семпл: http://multi-up.com/1030984
Качество: BDRip-AVC Исходник BD Remux MediaClub
Формат: MKV
Видео: 1152x624 (1.85:1), 23.976 fps, AVC, ~3000 Kbps, 0.174 bits/pixel
Аудио 1: Russian, 48.0 KHz, AC3, 6 ch, 448 Kbps - Dub
Аудио 2: Russian, 48.0 KHz, AC3, 2 ch, 192 Kbps - MVO
Аудио 3: Russian, 48.0 KHz, AC3, 2 ch, 192 Kbps - Сергей Визгунов
Аудио 4: English, 48.0 KHz, AC3, 6 ch, 448 Kbps
Субтитры: русские, английские

Log

avs4x264.exe: -L x264_64.exe --pass 2 --bitrate 3000 --preset medium --ref 10 --deblock -1:-1 --merange 32 --bframes 10 --direct auto --b-adapt 2 --trellis 2 --no-fast-pskip --psy-rd 1.00:0.10 --partitions all --subme 10 --me umh --rc-lookahead 50 --sar 1:1 --stats
raw [info]: 1152x624p 1:1 @ 24000/1001 fps (cfr)
x264 [info]: using SAR=1/1
x264 [info]: using cpu capabilities: MMX2 SSE2Fast LZCNT
x264 [info]: profile High, level 4.0
x264 [info]: frame I:1236 Avg QP:14.51 size:150568
x264 [info]: frame P:38655 Avg QP:19.20 size: 27486
x264 [info]: frame B:92836 Avg QP:23.06 size: 8907
x264 [info]: consecutive B-frames: 4.4% 5.8% 28.1% 35.4% 9.9% 12.1% 1.5% 1.0% 0.7% 0.4% 0.8%
x264 [info]: mb I I16..4: 12.6% 50.1% 37.3%
x264 [info]: mb P I16..4: 1.5% 9.5% 2.3% P16..4: 28.9% 11.5% 11.8% 1.1% 0.5% skip:33.0%
x264 [info]: mb B I16..4: 0.1% 1.4% 0.4% B16..8: 24.8% 7.2% 2.7% direct: 2.9% skip:60.4% L0:40.7% L1:43.9% BI:15.4%
x264 [info]: 8x8 transform intra:68.1% inter:58.3%
x264 [info]: direct mvs spatial:90.6% temporal:9.4%
x264 [info]: coded y,uvDC,uvAC intra: 82.2% 83.9% 62.9% inter: 14.1% 12.6% 4.7%
x264 [info]: i16 v,h,dc,p: 28% 21% 9% 42%
x264 [info]: i8 v,h,dc,ddl,ddr,vr,hd,vl,hu: 10% 12% 6% 9% 12% 12% 13% 11% 14%
x264 [info]: i4 v,h,dc,ddl,ddr,vr,hd,vl,hu: 11% 12% 5% 9% 14% 12% 14% 10% 13%
x264 [info]: i8c dc,h,v,p: 34% 25% 18% 22%
x264 [info]: Weighted P-Frames: Y:2.8% UV:2.0%
x264 [info]: ref P L0: 53.8% 10.0% 13.2% 6.2% 4.1% 4.0% 2.9% 1.9% 1.5% 1.8% 0.6% 0.0%
x264 [info]: ref B L0: 77.4% 9.0% 5.3% 2.3% 2.0% 1.5% 1.4% 0.6% 0.4%
x264 [info]: ref B L1: 91.3% 8.7%
x264 [info]: kb/s:2999.40
x264 [total]: encoded 132727 frames, 8.55 fps, 2999.40 kb/s

Подробные технические данные

GeneralUnique ID : 233533419857794448491211426320504983507 (0xAFB0E68FD065CF1EAE0A44A8B0AA0FD3)Complete name : C:\Monsters, Inc..mkvFormat : MatroskaFormat version : Version 4 / Version 2File size : 2.76 GiBDuration : 1h 32mnOverall bit rate : 4 282 KbpsEncoded date : UTC 2015-02-03 20:47:02Writing application : mkvmerge v7.5.0 ('Glass Culture') 64bit built on Jan 4 2015 16:48:44Writing library : libebml v1.3.1 + libmatroska v1.4.2DURATION : 01:23:27.250000000NUMBER_OF_FRAMES : 1094NUMBER_OF_BYTES : 38231_STATISTICS_WRITING_APP : mkvmerge v7.5.0 ('Glass Culture') 64bit built on Jan 4 2015 16:48:44_STATISTICS_WRITING_DATE_UT : 2015-02-03 20:47:02_STATISTICS_TAGS : BPS DURATION NUMBER_OF_FRAMES NUMBER_OF_BYTES
VideoID : 1Format : AVCFormat/Info : Advanced Video CodecFormat profile : High@L4.0Format settings, CABAC : YesFormat settings, ReFrames : 10 framesCodec ID : V_MPEG4/ISO/AVCDuration : 1h 32mnBit rate : 3 000 KbpsWidth : 1 152 pixelsHeight : 624 pixelsDisplay aspect ratio : 1.85:1Frame rate mode : ConstantFrame rate : 23.976 fpsColor space : YUVChroma subsampling : 4:2:0Bit depth : 8 bitsScan type : ProgressiveBits/(Pixel*Frame) : 0.174Stream size : 1.88 GiB (68%)Writing library : x264 core 144 r2525 40bb568Encoding settings : cabac=1 / ref=10 / deblock=1:-1:-1 / analyse=0x3:0x133 / me=umh / subme=10 / psy=1 / psy_rd=1.00:0.10 / mixed_ref=1 / me_range=32 / chroma_me=1 / trellis=2 / 8x8dct=1 / cqm=0 / deadzone=21,11 / fast_pskip=0 / chroma_qp_offset=-3 / threads=6 / lookahead_threads=1 / sliced_threads=0 / nr=0 / decimate=1 / interlaced=0 / bluray_compat=0 / constrained_intra=0 / bframes=10 / b_pyramid=2 / b_adapt=2 / b_bias=0 / direct=3 / weightb=1 / open_gop=0 / weightp=2 / keyint=250 / keyint_min=23 / scenecut=40 / intra_refresh=0 / rc_lookahead=50 / rc=2pass / mbtree=1 / bitrate=3000 / ratetol=1.0 / qcomp=0.60 / qpmin=0 / qpmax=69 / qpstep=4 / cplxblur=20.0 / qblur=0.5 / ip_ratio=1.40 / aq=1:1.00Language : EnglishDefault : YesForced : No
Audio #1ID : 2Format : AC-3Format/Info : Audio Coding 3Mode extension : CM (complete main)Format settings, Endianness : BigCodec ID : A_AC3Duration : 1h 32mnBit rate mode : ConstantBit rate : 448 KbpsChannel(s) : 6 channelsChannel positions : Front: L C R, Side: L R, LFESampling rate : 48.0 KHzBit depth : 16 bitsCompression mode : LossyStream size : 296 MiB (10%)Title : DubLanguage : RussianDefault : YesForced : No
Audio #2ID : 3Format : AC-3Format/Info : Audio Coding 3Mode extension : CM (complete main)Format settings, Endianness : BigCodec ID : A_AC3Duration : 1h 32mnBit rate mode : ConstantBit rate : 192 KbpsChannel(s) : 2 channelsChannel positions : Front: L RSampling rate : 48.0 KHzBit depth : 16 bitsCompression mode : LossyStream size : 127 MiB (4%)Title : MVOLanguage : RussianDefault : NoForced : No
Audio #3ID : 4Format : AC-3Format/Info : Audio Coding 3Mode extension : CM (complete main)Format settings, Endianness : BigCodec ID : A_AC3Duration : 1h 32mnBit rate mode : ConstantBit rate : 192 KbpsChannel(s) : 2 channelsChannel positions : Front: L RSampling rate : 48.0 KHzBit depth : 16 bitsCompression mode : LossyStream size : 127 MiB (4%)Title : Сергей ВизгуновLanguage : RussianDefault : NoForced : No
Audio #4ID : 5Format : AC-3Format/Info : Audio Coding 3Mode extension : CM (complete main)Format settings, Endianness : BigCodec ID : A_AC3Duration : 1h 32mnBit rate mode : ConstantBit rate : 448 KbpsChannel(s) : 6 channelsChannel positions : Front: L C R, Side: L R, LFESampling rate : 48.0 KHzBit depth : 16 bitsCompression mode : LossyStream size : 296 MiB (10%)Language : EnglishDefault : NoForced : No
Text #1ID : 6Format : UTF-8Codec ID : S_TEXT/UTF8Codec ID/Info : UTF-8 Plain TextLanguage : RussianDefault : NoForced : No
Text #2ID : 7Format : UTF-8Codec ID : S_TEXT/UTF8Codec ID/Info : UTF-8 Plain TextLanguage : EnglishDefault : NoForced : No
Menu00:00:00.000 : en:Начальные титры / Main Titles00:01:33.092 : en:В шкафу монстр / Monster in the Closet00:03:07.604 : en:Мистер Водоног / Mr. Waternoose00:04:51.124 : en:Утренняя зарядка / Morning Workout00:07:16.936 : en:Монстрополис / Monstropolis00:09:11.509 : en:"Корпорация монстров" / Monsters, Inc.00:10:43.601 : en:Рэндалл / Randall00:11:53.796 : en:Этаж страхов / The Scare Floor00:17:25.794 : en:"23-19!"00:20:06.079 : en:Конец рабочего дня / End of the Day00:22:03.780 : en:Бу! / Boo!00:25:48.421 : en:"У Годзиллы" / Harryhausen's00:28:34.963 : en:Обратно в квартиру / Back at the Apartment00:31:06.489 : en:Пора спать / Bedtime00:34:49.962 : en:Тайно пронесем Бу на работу / Sneaking Boo to Work00:36:55.630 : en:Горшок поломался / Potty Break00:38:50.286 : en:Рэндалл что-то задумал / Randall's Plot00:40:27.883 : en:Не та дверь / The Wrong Door00:43:34.278 : en:Майк в бегах / Mike on the Run00:45:29.726 : en:Пресс для отходов / The Trash Compactor00:48:07.426 : en:Майкла похитили / Mike Kidnapped00:50:37.159 : en:Криковыжималка / The Scream Extractor00:54:41.277 : en:Салли напугал Бу / Sulley Scares Boo00:57:29.445 : en:В изгнании / Banished01:03:42.026 : en:Салли спасает Бу / Sulley Rescues Boo01:06:25.022 : en:"Круглик-бублик" / "Schmoopsie Poo!"01:07:26.375 : en:Дверехранилище / The Door Vault01:13:52.135 : en:Водонога обвели вокруг пальца / Tricking Waternoose01:17:49.581 : en:Прощайте / Goodbye01:21:24.921 : en:Этаж смехов / The Laugh Floor01:24:07.959 : en:Котик! / Kitty!01:25:06.225 : en:Конечные титры / End Credits

Скриншоты


_________________
Показать сообщения:    

Текущее время: Сегодня 09:48

Часовой пояс: GMT



Вы не можете начинать темы
Вы не можете отвечать на сообщения
Вы не можете редактировать свои сообщения
Вы не можете удалять свои сообщения
Вы не можете голосовать в опросах
Вы не можете прикреплять файлы к сообщениям
Вы не можете скачивать файлы