Важное объявление!
У Нас Все раздачи мультитрекерные, при нуле пиров в релизах, можете смело вставать на закачку!
 
Автор Сообщение

HUNTER

Стаж:
4 года 4 месяца
Сообщений:
56734

Репутация: 101

[+] [-]
Вне форума [Профиль] [ЛС]

Коронованные особи
Год выпуска: 2013
Страна: Россия
Жанр: расследование
Продолжительность: 01:31:45
Перевод: Не требуется
Русские субтитры: нет
Режиссер: Борис Соболев
Описание: Впервые на российском телевидении - журналистское расследование, построенное не на слухах и предположениях, а на прямых доказательствах, вскрывающее истинные механизмы подиумных коронаций.
Спектакль, где продается все – от корон мисс и вице-мисс до приза зрительских симпатий. Цена победы - от миллиона рублей на региональных конкурсах и до полумиллиона евро - на всероссийских.
Снятые скрытой камерой переговоры с владельцами крупнейших национальных конкурсов красоты и попытка ответить на вопрос, почему эти люди до сих пор не в тюрьме.
Известные лица в жюри – не гарантия честного судейства. Неопровержимые доказательства продажности так называемых "звезд", избирающих очередных мисс и миссис.
Сбор и последующее хищение средств на благотворительность - побочный бизнес хозяев мошеннических шоу. Что в действительности ожидает титулованных мисс после покупки призового места? И чем оборачиваются для юных участниц детские конкурсы красоты.
качество: SATRip
формат: AVI
Видео: 720x448 (1.61:1), 25 fps, XviD MPEG-4 ~1643 kbps avg, 0.20 bit/pixel
Аудио: 48 kHz, MPEG Layer 3, 2 ch, ~128.00 kbps avg

MediaInfo

Формат : AVI
Формат/Информация : Audio Video Interleave
Размер файла : 1,14 Гбайт
Продолжительность : 1 ч. 31 м.
Общий поток : 1782 Кбит/сек
Библиотека кодирования : VirtualDub build 34670/release
Видео
Идентификатор : 0
Формат : MPEG-4 Visual
Профиль формата : Advanced Simple@L5
Параметр BVOP формата : 2
Параметр QPel формата : Нет
Параметр GMC формата : Без точки перехода
Параметр матрицы формата : Default (MPEG)
Режим смешивания : Сжатый битовый поток
Идентификатор кодека : XVID
Идентификатор кодека/Подсказка : XviD
Продолжительность : 1 ч. 31 м.
Битрейт : 1644 Кбит/сек
Ширина : 720 пикселей
Высота : 448 пикселей
Соотношение сторон : 1,607
Частота кадров : 25,000 кадров/сек
Цветовое пространство : YUV
Субдискретизация насыщенности : 4:2:0
Битовая глубина : 8 бит
Тип развёртки : Прогрессивная
Метод сжатия : С потерями
Бит/(Пиксели*Кадры) : 0.204
Размер потока : 1,05 Гбайт (92%)
Библиотека кодирования : XviD 64
Аудио
Идентификатор : 1
Формат : MPEG Audio
Версия формата : Version 1
Профиль формата : Layer 3
Режим : Joint stereo
Расширение режима : MS Stereo
Идентификатор кодека : 55
Идентификатор кодека/Подсказка : MP3
Продолжительность : 1 ч. 31 м.
Вид битрейта : Постоянный
Битрейт : 128 Кбит/сек
Каналы : 2 канала
Частота : 48,0 КГц
Метод сжатия : С потерями
Задержка видео : 16 мс.
Размер потока : 84,0 Мбайт (7%)
Выравнивание : Разделение по промежуткам
Продолжительность промежутка : 40 мс. (1,00 видеокадр)
Время предзагрузки промежутка : 500 мс.
Библиотека кодирования : LAME3.99.5ЄЄЄЄЄЄА†ђ

Скриншоты


_________________
Показать сообщения:    

Текущее время: Сегодня 06:28

Часовой пояс: GMT



Вы не можете начинать темы
Вы не можете отвечать на сообщения
Вы не можете редактировать свои сообщения
Вы не можете удалять свои сообщения
Вы не можете голосовать в опросах
Вы не можете прикреплять файлы к сообщениям
Вы не можете скачивать файлы