Важное объявление!
У Нас Все раздачи мультитрекерные, при нуле пиров в релизах, можете смело вставать на закачку!
 
Автор Сообщение

HUNTER

Стаж:
4 года 4 месяца
Сообщений:
56790

Репутация: 101

[+] [-]
Вне форума [Профиль] [ЛС]

-Король Лев 3D / The Lion King 3D-
Год выпуска:1994(Оригинал) / 2011 (Переиздание в 3D)
Страна: США]
Анимационная студия:
Жанр: мультфильм, фэнтези, приключения, семейный
Продолжительность:01:28:48
Перевод: Профессиональный (полное дублирование)
Субтитры: Нет -Роли озвучивали(оригинал): Джереми Айронс (Scar, озвучка), Мэттью Бродерик (Adult Simba, озвучка), Натан Лейн (Timon, озвучка), Эрни Сабелла (Pumbaa, озвучка), Джеймс Эрл Джонс (Mufasa, озвучка), Мойра Келли (Adult Nala, озвучка), Роуэн Эткинсон (Zazu, озвучка), Вупи Голдберг (Shenzi, озвучка), Чич Марин (Banzai, озвучка), Джонатан Тейлор Томас (Young Simba, озвучка), Никета Калам (Young Nala, озвучка), Роберт Гийом (Rafiki, озвучка) -Режиссёр: Роджер Аллерс-Описание: У величественного Короля-Льва Муфасы рождается наследник по имени Симба. Уже в детстве любознательный малыш становится жертвой интриг своего завистливого дяди Шрама, мечтающего о власти.
Симба познаёт горе утраты, предательство и изгнание, но в конце концов обретает верных друзей и находит любимую. Закалённый испытаниями, он в нелёгкой борьбе отвоёвывает своё законное место в «Круге жизни», осознав, что значит быть настоящим Королём.

Интересные факты о мультфильме

Мрачные части партитуры фоновой музыки были позаимствованы из реквиема Моцарта.-Чтобы сделать возможным 3D переиздание мультфильма, сотрудникам студии пришлось воссоздавать мультфильм из отдельных материалов системы CAPS. Это привело к тому, что в переизданной версии не хватает некоторых деталей (таких как тени и некоторые части сцен) в отдельных сценах.-Сцена «Круг жизни» (Circle of Life) использовалась как трейлер мультфильма. Во время рекламной кампании эту сцену можно было видеть на телевизорах во многих магазинах Диснея.-«Симба» означает лев, «Сараби» — мираж, «Рафики» — друг, «Пумба» — простак, «Банзай» — прячущийся, «Шензи» — неотесанный.-Муфаса — имя последнего короля народа, населяющего Кению перед английской колонизацией.-Чтобы помочь кинопроизводителям справиться с задачей передать естественную и величественную красоту Африки посредством мультипликации, шесть членов творческой команды посетили Восточную Африку на ранних стадиях производства. Оттуда они привезли массу зарисовок, идей, выражение «Hakuna Matata,» песенку Рафики — школьную считалку и т. д.-Для более чем 600 художников, аниматоров и техников, которые внесли вклад в «Короля Льва», фильм представил собой много вызовов. В конце концов, больше чем один миллион рисунков были созданы для фильма, составленного из 1 197 окрашенных рукой фонов и 119 058 индивидуально нарисованных кадров для фильма.-25 декабря 2002 года состоялась IMAX-премьера переработанной версии «Короля-льва» с улучшенным качеством изображения и звука.-Один из жуков, доставаемых Тимоном из дупла во время Акуны Мататы, носит уши Микки Мауса.-Муфаса должен был исполнить песню «To Be King», но она не подошла голосу актера.-Когда Муфаса говорит с Симбой о великих королях прошлого, в звездном небе можно увидеть снова уши Микки Мауса. В этом же эпизоде видно созвездие Льва.-Если внимательно посмотреть на клюв Зазу, спустившегося поздравить Симбу с победой над Шрамом, то можно заметить его движение без звука. Изначально Зазу говорит: «Ваше Величество!».-Песенка Рафики «Большое спасибо, съешь банан» (Ashante sana, squash banana) — детская считалочка из Африки.-Листовые муравьи, колумбийский суслик и некоторые виды гигантских муравьедов, показанные в фильме, живут только в Америке, а не в Африке.-В серии The Man from J.U.N.G.L.E. (Человек из Д. Ж. У. Н. Г. Л. Е. Й.), мультсериала «Тимон и Пумба» (1995-1998), спародирована сцена из короля Льва, когда Слон вместе с птицами идет на представление Симбы.
-Качество: BDRip 1080p
Формат: MKV
Формат : Half Over Under/ Вертикальная анаморфная стереопара
Видео кодек: AVC
Аудио кодек: AC-3
Видео: 1920х1080, 5992 Кбит/сек, 23,976 кадра/сек, 0.121 Бит/(Пиксели*Кадры)
Аудио 1: 48 kHz/AC3/6 каналов Front: L C R, Side: L R, LFE /448 kbps/дубляж(чистый звук)
Аудио 2: 48 kHz/AC3/6 каналов Front: L C R, Side: L R, LFE /640 kbps/DVO - П.Гланц и Н.Казакова
Аудио 3: 48 kHz/AC3/6 каналов Front: L C R, Side: L R, LFE /448 kbps/AVO - А.Гаврилов
Аудио 4: 48 kHz/AC3/6 каналов Front: L C R, Side: L R, LFE /640 kbps/English

Полная информация о файле

Видео
Идентификатор : 1
Формат : AVC
Формат/Информация : Advanced Video Codec
Профиль формата : [url=mailto:High@L4.1]High@L4.1[/url]
Параметр CABAC формата : Да
Параметр ReFrames формата : 4 кадра
Идентификатор кодека : V_MPEG4/ISO/AVC
Продолжительность : 1 ч. 28 м.
Битрейт : 5992 Кбит/сек
Ширина : 1920 пикселей
Высота : 1080 пикселей
Соотношение сторон : 16:9
Режим частоты кадров : Постоянный
Частота кадров : 23,976 кадра/сек
Цветовое пространство : YUV
Субдискретизация насыщенности : 4:2:0
Битовая глубина : 8 бит
Тип развёртки : Прогрессивная
Бит/(Пиксели*Кадры) : 0.121
Размер потока : 3,72 Гбайт (72%)
Заголовок : Rip by ash61
Библиотека кодирования : x264 core 113 r1884 7313bb5
Настройки программы : cabac=1 / ref=4 / deblock=1:-1:-1 / analyse=0x3:0x113 / me=umh / subme=9 / psy=1 / psy_rd=1.00:0.15 / mixed_ref=1 / me_range=16 / chroma_me=1 / trellis=2 / 8x8dct=1 / cqm=0 / deadzone=21,11 / fast_pskip=1 / chroma_qp_offset=-3 / threads=3 / sliced_threads=0 / nr=0 / decimate=1 / interlaced=0 / constrained_intra=0 / bframes=6 / b_pyramid=2 / b_adapt=2 / b_bias=0 / direct=3 / weightb=1 / open_gop=0 / weightp=2 / keyint=250 / keyint_min=23 / scenecut=40 / intra_refresh=0 / rc_lookahead=60 / rc=crf / mbtree=1 / crf=19.0 / qcomp=0.70 / qpmin=1 / qpmax=51 / qpstep=4 / ip_ratio=1.40 / aq=1:1.00
Default : Да
Forced : Нет
Аудио #1
Идентификатор : 2
Формат : AC-3
Формат/Информация : Audio Coding 3
Расширение режима : CM (complete main)
Параметр Endianness формата : Big
Идентификатор кодека : A_AC3
Продолжительность : 1 ч. 28 м.
Вид битрейта : Постоянный
Битрейт : 448 Кбит/сек
Каналы : 6 каналов
Расположение каналов : Front: L C R, Side: L R, LFE
Частота : 48,0 КГц
Битовая глубина : 16 бит
Метод сжатия : С потерями
Размер потока : 285 Мбайт (5%)
Заголовок : Дубляж (edit by ash61)
Язык : Russian
Default : Да
Forced : Нет
Аудио #2
Идентификатор : 3
Формат : AC-3
Формат/Информация : Audio Coding 3
Расширение режима : CM (complete main)
Параметр Endianness формата : Big
Идентификатор кодека : A_AC3
Продолжительность : 1 ч. 28 м.
Вид битрейта : Постоянный
Битрейт : 640 Кбит/сек
Каналы : 6 каналов
Расположение каналов : Front: L C R, Side: L R, LFE
Частота : 48,0 КГц
Битовая глубина : 16 бит
Метод сжатия : С потерями
Размер потока : 407 Мбайт (8%)
Заголовок : DVO - П.Гланц и Н.Казакова
Язык : Russian
Default : Нет
Forced : Нет
Аудио #3
Идентификатор : 4
Формат : AC-3
Формат/Информация : Audio Coding 3
Расширение режима : CM (complete main)
Параметр Endianness формата : Big
Идентификатор кодека : A_AC3
Продолжительность : 1 ч. 28 м.
Вид битрейта : Постоянный
Битрейт : 448 Кбит/сек
Каналы : 6 каналов
Расположение каналов : Front: L C R, Side: L R, LFE
Частота : 48,0 КГц
Битовая глубина : 16 бит
Метод сжатия : С потерями
Размер потока : 285 Мбайт (5%)
Заголовок : AVO - А.Гаврилов
Язык : Russian
Default : Нет
Forced : Нет
Аудио #4
Идентификатор : 5
Формат : AC-3
Формат/Информация : Audio Coding 3
Расширение режима : CM (complete main)
Параметр Endianness формата : Big
Идентификатор кодека : A_AC3
Продолжительность : 1 ч. 28 м.
Вид битрейта : Постоянный
Битрейт : 640 Кбит/сек
Каналы : 6 каналов
Расположение каналов : Front: L C R, Side: L R, LFE
Частота : 48,0 КГц
Битовая глубина : 16 бит
Метод сжатия : С потерями
Размер потока : 407 Мбайт (8%)
Язык : English
Default : Нет
Forced : Нет
-

Скриншоты


_________________
Показать сообщения:    

Текущее время: Сегодня 14:43

Часовой пояс: GMT



Вы не можете начинать темы
Вы не можете отвечать на сообщения
Вы не можете редактировать свои сообщения
Вы не можете удалять свои сообщения
Вы не можете голосовать в опросах
Вы не можете прикреплять файлы к сообщениям
Вы не можете скачивать файлы