Важное объявление!
У Нас Все раздачи мультитрекерные, при нуле пиров в релизах, можете смело вставать на закачку!
 
Автор Сообщение

HUNTER

Стаж:
4 года 4 месяца
Сообщений:
56734

Репутация: 101

[+] [-]
Вне форума [Профиль] [ЛС]

Король и четыре королевы / The King and Four Queens
Страна: США
Студия: Russ-Field Productions
Жанр: вестерн, приключения
Год выпуска: 1956
Продолжительность: 01:24:02
Перевод: Профессиональный (двухголосый закадровый) НТВ+
Перевод 2: Профессиональный (многоголосый закадровый) Пятый канал
Перевод 3: Одноголосый закадровый
Cубтитры: нет
Оригинальная аудиодорожка: английский
Режиссер: Рауль Уолш / Raoul Walsh
В ролях: Кларк Гэйбл, Элеaнор Паркер, Джин Уиллис, Барбара Николс, Сэра Шэйн, Рой Робертс, Артур Шилдс, Джэй С. Флиппен, Джо Ван Флит, Флоренц Эймс, Чак Роберсон
Описание: Дэн Кехо, находящийся в бегах, прячется в маленьком техасском городке. Он коротает время за общением с единственными обитательницами этого богом забытого места: мамашей Ма МакДэйд и еще четырьмя женщинами, женами сыновей миссис МакДэйд. Трое из них погибли, а четвертый со дня на день должен вернуться в родное гнездо с награбленной добычей. Поскольку ни одна из женщин не знает, чей муж остался в живых, все четверо заигрывают с Кехо. Он отвечает на ухаживания каждой из них в надежде на то, что ему перепадет часть награбленного...
Доп. информация: В видеоряде есть битые кадры в одном месте длительностью около секунды (время 00:46:54) - так было на исходном BD. Я узнал это после того как сделал релиз, поэтому прошу прощения что не предупредил всех сразу. Ниже под спойлером скриншот такого кадра.

Sample
Тип релиза: BDRemux 1080p
Контейнер: MKV
Видео: MPEG4 AVC Video, H264, 16:9, 1920x1080, 23.976 fps, 22.5 Mbps
Аудио: Russian (AC3, 2 ch, 192 kbps, 16 bits, 48.0 KHz) - НТВ+
Аудио 2: Russian (AC3, 2 ch, 192 kbps, 16 bits, 48.0 KHz) - Пятый канал
Аудио 3: Russian (AC3, 2 ch, 192 kbps, 16 bits, 48.0 KHz) - VO
Аудио 4: English (AC3, 2 ch, 384 kbps, 16 bits, 48.0 KHz) - оригинал

Битый кадр(см. Доп инфо.)

MediaInfo

General
Unique ID : 242030196582325738477937712472977532954 (0xB61551FF77D1E8DBAF57B17B28DB681A)
Complete name : K:\The King and Four Queens 1956 BDRemux 1080p.mkv
Format : Matroska
Format version : Version 4 / Version 2
File size : 14.1 GiB
Duration : 1h 24mn
Overall bit rate mode : Variable
Overall bit rate : 23.9 Mbps
Encoded date : UTC 2015-01-08 13:11:54
Writing application : mkvmerge v6.1.0 ('Old Devil') built on Mar 2 2013 14:32:37
Writing library : libebml v1.3.0 + libmatroska v1.4.0
Video
ID : 1
Format : AVC
Format/Info : Advanced Video Codec
Format profile : High@L4.1
Format settings, CABAC : Yes
Format settings, ReFrames : 4 frames
Codec ID : V_MPEG4/ISO/AVC
Duration : 1h 24mn
Bit rate mode : Variable
Bit rate : 22.5 Mbps
Maximum bit rate : 35.0 Mbps
Width : 1 920 pixels
Height : 1 080 pixels
Display aspect ratio : 16:9
Frame rate mode : Constant
Frame rate : 23.976 fps
Standard : NTSC
Color space : YUV
Chroma subsampling : 4:2:0
Bit depth : 8 bits
Scan type : Progressive
Bits/(Pixel*Frame) : 0.453
Stream size : 13.2 GiB (94%)
Language : English
Default : Yes
Forced : Yes
Color primaries : BT.709
Transfer characteristics : BT.709
Matrix coefficients : BT.709
Audio #1
ID : 2
Format : AC-3
Format/Info : Audio Coding 3
Mode extension : CM (complete main)
Format settings, Endianness : Big
Codec ID : A_AC3
Duration : 1h 24mn
Bit rate mode : Constant
Bit rate : 192 Kbps
Channel count : 2 channels
Channel positions : Front: L R
Sampling rate : 48.0 KHz
Bit depth : 16 bits
Compression mode : Lossy
Stream size : 115 MiB (1%)
Title : НТВ+
Language : Russian
Default : Yes
Forced : Yes
Audio #2
ID : 3
Format : AC-3
Format/Info : Audio Coding 3
Mode extension : CM (complete main)
Format settings, Endianness : Big
Codec ID : A_AC3
Duration : 1h 24mn
Bit rate mode : Constant
Bit rate : 192 Kbps
Channel count : 2 channels
Channel positions : Front: L R
Sampling rate : 48.0 KHz
Bit depth : 16 bits
Compression mode : Lossy
Stream size : 115 MiB (1%)
Title : Пятый канал
Language : Russian
Default : No
Forced : No
Audio #3
ID : 4
Format : AC-3
Format/Info : Audio Coding 3
Mode extension : CM (complete main)
Format settings, Endianness : Big
Codec ID : A_AC3
Duration : 1h 24mn
Bit rate mode : Constant
Bit rate : 192 Kbps
Channel count : 2 channels
Channel positions : Front: L R
Sampling rate : 48.0 KHz
Bit depth : 16 bits
Compression mode : Lossy
Stream size : 115 MiB (1%)
Title : VO
Language : Russian
Default : No
Forced : No
Audio #4
ID : 5
Format : AC-3
Format/Info : Audio Coding 3
Mode extension : CM (complete main)
Format settings, Endianness : Big
Codec ID : A_AC3
Duration : 1h 24mn
Bit rate mode : Constant
Bit rate : 384 Kbps
Channel count : 2 channels
Channel positions : Front: L R
Sampling rate : 48.0 KHz
Bit depth : 16 bits
Compression mode : Lossy
Stream size : 231 MiB (2%)
Language : English
Default : No
Forced : No

Скриншоты


_________________
Показать сообщения:    

Текущее время: Сегодня 11:02

Часовой пояс: GMT



Вы не можете начинать темы
Вы не можете отвечать на сообщения
Вы не можете редактировать свои сообщения
Вы не можете удалять свои сообщения
Вы не можете голосовать в опросах
Вы не можете прикреплять файлы к сообщениям
Вы не можете скачивать файлы