Важное объявление!
У Нас Все раздачи мультитрекерные, при нуле пиров в релизах, можете смело вставать на закачку!
 
Автор Сообщение

HUNTER

Стаж:
4 года 4 месяца
Сообщений:
56839

Репутация: 101

[+] [-]
Вне форума [Профиль] [ЛС]

Короли рулетки«Они сумели схватить удачу за хвост, остаться в живых и при деньгах. Они - клан Пелайос.»-
Год выпуска: 2012
Страна: Испания
Жанр: боевик, драма
Продолжительность: 01:37:17-Перевод: Профессиональный (многоголосый, закадровый)
Режиссер: Эдуард Кортес / Eduard Cort�s
В ролях: Гонзалез Аранча (Espe), Даниэль Брюль (Iv�n Pelayo), Соня Касадемонт (Aurora), Чи Чуй (Shui), Ксело Куриэль (Peluquera), Эдуард Фернандес (La Bestia), Льюис Омар (Gonzalo Pelayo), Ферран Лаоз, Рачель Ласкар (Mallorca's Casino Manager), Мика Луна (играет самого себя - Guitarist / Singer), Висенте Ромеро (Bal�n), Марина Салас (Vanessa)-Описание: Авантюрная история, снятая по мотивам реальных событий, рассказывает о клане Пелайо. Члены этой Семьи - большие мастера рулетки и карт честным путем обыгрывали казино по всему миру. Благодаря своим незаурядным талантам, они заработали много денег и даже «увековечились» в названии школы покера.--Качество: BDRip
Контейнер: MKV
Видео кодек: AVC
Аудио кодек: AC3
Видео: AVC, 1024x424 (2.40:1), 3769 kbps, 25 fps, 0,347 bpp
Аудио: Русский / AC3 / 5.1 / 48 kHz / 384 kbps / 16 bit-Рип: and77200

Media Info

General
Complete name : E:\торрент\Короли рулетки (2012) BDRip - AVC.mkv
Format : Matroska
File size : 2.82 GiB
Duration : 1h 37mn
Overall bit rate : 4 151 Kbps
Encoded date : UTC 2013-02-01 23:52:47
Writing application : mkvmerge v5.8.0 ('No Sleep / Pillow') built on Sep 2 2012 15:37:04
Writing library : libebml v1.2.3 + libmatroska v1.3.0
Video
ID : 1
Format : AVC
Format/Info : Advanced Video Codec
Format profile : [url=mailto:High@L4.1]High@L4.1[/url]
Format settings, CABAC : Yes
Format settings, ReFrames : 4 frames
Muxing mode : Container profile=Unknown@4.1
Codec ID : V_MPEG4/ISO/AVC
Duration : 1h 37mn
Bit rate : 3 684 Kbps
Nominal bit rate : 3 769 Kbps
Width : 1 024 pixels
Height : 424 pixels
Display aspect ratio : 2.40:1
Frame rate : 25.000 fps
Resolution : 24 bits
Colorimetry : 4:2:0
Scan type : Progressive
Bits/(Pixel*Frame) : 0.339
Stream size : 2.50 GiB (89%)
Writing library : x264 core 125 r2208 d9d2288
Encoding settings : cabac=1 / ref=4 / deblock=1:-1:-1 / analyse=0x3:0x113 / me=umh / subme=8 / psy=1 / psy_rd=1.00:0.20 / mixed_ref=1 / me_range=16 / chroma_me=1 / trellis=2 / 8x8dct=1 / cqm=0 / deadzone=21,11 / fast_pskip=0 / chroma_qp_offset=-3 / threads=3 / lookahead_threads=1 / sliced_threads=0 / nr=0 / decimate=0 / interlaced=0 / bluray_compat=0 / constrained_intra=0 / bframes=5 / b_pyramid=2 / b_adapt=2 / b_bias=0 / direct=3 / weightb=1 / open_gop=0 / weightp=2 / keyint=250 / keyint_min=25 / scenecut=40 / intra_refresh=0 / rc_lookahead=50 / rc=2pass / mbtree=1 / bitrate=3769 / ratetol=1.0 / qcomp=0.60 / qpmin=0 / qpmax=69 / qpstep=4 / cplxblur=20.0 / qblur=0.5 / vbv_maxrate=50000 / vbv_bufsize=50000 / nal_hrd=none / ip_ratio=1.40 / aq=1:1.00
Audio
ID : 2
Format : AC-3
Format/Info : Audio Coding 3
Codec ID : A_AC3
Duration : 1h 37mn
Bit rate mode : Constant
Bit rate : 384 Kbps
Channel(s) : 6 channels
Channel positions : Front: L C R, Surround: L R, LFE
Sampling rate : 48.0 KHz
Stream size : 267 MiB (9%)

Скриншоты

Оформление by and77200

_________________

bot

Вне форума [Профиль] [ЛС]

Топик был перенесен из форума Топка в форум Новые релизы
HUNTER
 
Показать сообщения:    

Текущее время: Сегодня 23:54

Часовой пояс: GMT



Вы не можете начинать темы
Вы не можете отвечать на сообщения
Вы не можете редактировать свои сообщения
Вы не можете удалять свои сообщения
Вы не можете голосовать в опросах
Вы не можете прикреплять файлы к сообщениям
Вы не можете скачивать файлы