Важное объявление!
У Нас Все раздачи мультитрекерные, при нуле пиров в релизах, можете смело вставать на закачку!
 
Автор Сообщение

HUNTER

Стаж:
4 года 4 месяца
Сообщений:
56848

Репутация: 101

[+] [-]
Вне форума [Профиль] [ЛС]

Короли Догтауна / Lords of Dogtown
Год выпуска: 2005
Страна: США, Германия
Жанр: драма, биография, спорт
Продолжительность: 01:50:14
Перевод №1: профессиональный двухголосый закадровый (R5)
Перевод №2: профессиональный двухголосый закадровый (SDI Media)
Cубтитры: английские
Оригинальная аудиодорожка: английская
Оглавление: 16 глав
Режиссёр: Кэтрин Хардвик /Catherine Hardwicke/
В ролях: Эмиль Хирш /Emile Hirsch/, Виктор Расук /Victor Rasuk/, Джон Робинсон /John Robinson/, Хит Леджер /Heath Ledger/, Ребекка Де Морнэй /Rebecca De Mornay/, Джонни Ноксвил /Johnny Knoxville/, Лаура Рэмси /Laura Ramsey/, Америка Феррера /America Ferrera/
Описание:
70-ые годы. Молодые калифорнийские серферы перебираются на улицы Догтауна — квартала, расположенного в местечке под названием Венеция, где изобретают революционный стиль катания на скейтбордах.
Демонстрируя настоящие чудеса в пустых плавательных бассейнах, эти лихие ребята положили начало новому экстремальному виду спорта, ставшему новым направлением в поп-культуре и символом целого поколения. Однако обрушившаяся на них внезапная слава разрушает их взаимоотношения, а увлечение серфингом превращается в большой бизнес…
Дополнительная информация:
IMDB User Rating→: 7.1/10 (41,842 votes)
Рейтинг фильма КиноПоиск.Ru→: 7.931 (10 447 голосов)
  • За предоставленную запись перевода SDI Media с канала TV1000 большое спасибо alenavova.
    Качество: BDRemux (исходник: Lords of Dogtown 2005 Unrated Extended Cut 1080p EUR Blu-ray AVC DTS-HD MA 5.1-ESiR)
    Контейнер: MKV
    Видеопоток: 1920x1080p, 23.976 fps, H.264 ~24890 kbps
    Аудиопоток №1 (RUS): DD 5.1, 48 kHz, 448 kbps | профессиональный двухголосый закадровый (R5)
    Аудиопоток №2 (RUS): DD 2.0, 48 kHz, 192 kbps | профессиональный двухголосый закадровый (SDI Media)
    Аудиопоток №3 (ENG): DTS-HD MA 5.1, 48 kHz, 16 bit, ~2257 kbps (core: DTS 5.1, 48 kHz, 1509 kbps)
    Аудиопоток №4 (ENG): DD 2.0, 48 kHz, 192 kbps | комментарии режиссёра Кэтрин Хардвик и актёров Джона Робинсона, Виктора Расука и Эмиля Хирша
    Аудиопоток №5 (ENG): DD 2.0, 48 kHz, 192 kbps | комментарии настоящих Z-Boys Тони Альва и Стэйси Перальта
    Субтитры №1 (ENG): SRT/UTF8
    Субтитры №2 (ENG): SRT/UTF8 | SDH
    Субтитры №3 (ENG): SRT/UTF8 | комментарии №1
    Субтитры №4 (ENG): SRT/UTF8 | комментарии №2
    Сэмпл: Яндекс.Диск→, sendspace→

    MediaInfo

    Код:
    General
    Unique ID                   : 254114164906481370493053673522736883837 (0xBF2C9BA28590593C9D7B582B8867687D)
    Complete name               : Lords.of.Dogtown.2005.1080p.BDRemux.H264.DD.DTSMA.SRT.mkv
    Format                      : Matroska
    Format version              : Version 4 / Version 2
    File size                   : 21.7 GiB
    Duration                    : 1h 50mn
    Overall bit rate mode       : Variable
    Overall bit rate            : 28.2 Mbps
    Movie name                  : Lords of Dogtown (2005) BDRemux
    Encoded date                : UTC 2015-10-23 01:21:57
    Writing application         : mkvmerge v8.3.0 ('Over the Horizon') 64bit
    Writing library             : libebml v1.3.1 + libmatroska v1.4.2
    DURATION                    : 01:49:31.106000000
    NUMBER_OF_FRAMES            : 1697
    NUMBER_OF_BYTES             : 57136
    _STATISTICS_WRITING_APP     : mkvmerge v8.3.0 ('Over the Horizon') 64bit
    _STATISTICS_WRITING_DATE_UT : 2015-10-23 01:21:57
    _STATISTICS_TAGS            : BPS DURATION NUMBER_OF_FRAMES NUMBER_OF_BYTES
    Video
    ID                          : 1
    Format                      : AVC
    Format/Info                 : Advanced Video Codec
    Format profile              : High@L4.1
    Format settings, CABAC      : Yes
    Format settings, ReFrames   : 2 frames
    Codec ID                    : V_MPEG4/ISO/AVC
    Duration                    : 1h 50mn
    Bit rate mode               : Variable
    Width                       : 1 920 pixels
    Height                      : 1 080 pixels
    Display aspect ratio        : 16:9
    Frame rate mode             : Constant
    Frame rate                  : 23.976 fps
    Color space                 : YUV
    Chroma subsampling          : 4:2:0
    Bit depth                   : 8 bits
    Scan type                   : Progressive
    Title                       : 1920x1080, 23.976 fps, H.264 ~24890 kbps
    Language                    : English
    Default                     : Yes
    Forced                      : No
    Audio #1
    ID                          : 2
    Format                      : AC-3
    Format/Info                 : Audio Coding 3
    Mode extension              : CM (complete main)
    Format settings, Endianness : Big
    Codec ID                    : A_AC3
    Duration                    : 1h 50mn
    Bit rate mode               : Constant
    Bit rate                    : 448 Kbps
    Channel(s)                  : 6 channels
    Channel positions           : Front: L C R, Side: L R, LFE
    Sampling rate               : 48.0 KHz
    Compression mode            : Lossy
    Stream size                 : 353 MiB (2%)
    Title                       : RUS DVO R5 DD 5.1, 48 kHz, 448 kbps
    Language                    : Russian
    Default                     : Yes
    Forced                      : No
    Audio #2
    ID                          : 3
    Format                      : AC-3
    Format/Info                 : Audio Coding 3
    Mode extension              : CM (complete main)
    Format settings, Endianness : Big
    Codec ID                    : A_AC3
    Duration                    : 1h 50mn
    Bit rate mode               : Constant
    Bit rate                    : 192 Kbps
    Channel(s)                  : 2 channels
    Channel positions           : Front: L R
    Sampling rate               : 48.0 KHz
    Compression mode            : Lossy
    Stream size                 : 151 MiB (1%)
    Title                       : RUS DVO SDI Media DD 2.0, 48 kHz, 192 kbps
    Language                    : Russian
    Default                     : No
    Forced                      : No
    Audio #3
    ID                          : 4
    Format                      : DTS
    Format/Info                 : Digital Theater Systems
    Format profile              : MA / Core
    Mode                        : 16
    Format settings, Endianness : Big
    Codec ID                    : A_DTS
    Duration                    : 1h 50mn
    Bit rate mode               : Variable
    Bit rate                    : Unknown / 1 509 Kbps
    Channel(s)                  : 6 channels
    Channel positions           : Front: L C R, Side: L R, LFE
    Sampling rate               : 48.0 KHz
    Bit depth                   : 16 bits
    Compression mode            : Lossless / Lossy
    Title                       : ENG DTS-HD MA 5.1, 48 kHz, 16 bit, ~2257 kbps
    Language                    : English
    Default                     : No
    Forced                      : No
    Audio #4
    ID                          : 5
    Format                      : AC-3
    Format/Info                 : Audio Coding 3
    Mode extension              : CM (complete main)
    Format settings, Endianness : Big
    Codec ID                    : A_AC3
    Duration                    : 1h 50mn
    Bit rate mode               : Constant
    Bit rate                    : 192 Kbps
    Channel(s)                  : 2 channels
    Channel positions           : Front: L R
    Sampling rate               : 48.0 KHz
    Compression mode            : Lossy
    Stream size                 : 151 MiB (1%)
    Title                       : ENG Commentary №1 DD 2.0, 48 kHz, 192 kbps
    Language                    : English
    Default                     : No
    Forced                      : No
    Audio #5
    ID                          : 6
    Format                      : AC-3
    Format/Info                 : Audio Coding 3
    Mode extension              : CM (complete main)
    Format settings, Endianness : Big
    Codec ID                    : A_AC3
    Duration                    : 1h 50mn
    Bit rate mode               : Constant
    Bit rate                    : 192 Kbps
    Channel(s)                  : 2 channels
    Channel positions           : Front: L R
    Sampling rate               : 48.0 KHz
    Compression mode            : Lossy
    Stream size                 : 151 MiB (1%)
    Title                       : ENG Commentary №2 DD 2.0, 48 kHz, 192 kbps
    Language                    : English
    Default                     : No
    Forced                      : No
    Text #1
    ID                          : 7
    Format                      : UTF-8
    Codec ID                    : S_TEXT/UTF8
    Codec ID/Info               : UTF-8 Plain Text
    Title                       : ENG SRT
    Language                    : English
    Default                     : No
    Forced                      : No
    Text #2
    ID                          : 8
    Format                      : UTF-8
    Codec ID                    : S_TEXT/UTF8
    Codec ID/Info               : UTF-8 Plain Text
    Title                       : ENG SDH SRT
    Language                    : English
    Default                     : No
    Forced                      : No
    Text #3
    ID                          : 9
    Format                      : UTF-8
    Codec ID                    : S_TEXT/UTF8
    Codec ID/Info               : UTF-8 Plain Text
    Title                       : ENG Commentary №1 SRT
    Language                    : English
    Default                     : No
    Forced                      : No
    Text #4
    ID                          : 10
    Format                      : UTF-8
    Codec ID                    : S_TEXT/UTF8
    Codec ID/Info               : UTF-8 Plain Text
    Title                       : ENG Commentary №2 SRT
    Language                    : English
    Default                     : No
    Forced                      : No
    Menu
    00:00:00.000                : en:00:00:00.000
    00:05:49.307                : en:00:05:49.307
    00:11:07.542                : en:00:11:07.542
    00:15:57.373                : en:00:15:57.373
    00:20:20.678                : en:00:20:20.678
    00:24:57.663                : en:00:24:57.663
    00:31:01.026                : en:00:31:01.026
    00:36:21.304                : en:00:36:21.304
    00:42:31.132                : en:00:42:31.132
    00:52:03.829                : en:00:52:03.829
    00:59:46.708                : en:00:59:46.708
    01:07:22.789                : en:01:07:22.789
    01:15:10.548                : en:01:15:10.548
    01:21:17.122                : en:01:21:17.122
    01:32:14.237                : en:01:32:14.237
    01:40:35.863                : en:01:40:35.863

    Скриншоты



  • _________________
    Показать сообщения:    

    Текущее время: Сегодня 08:17

    Часовой пояс: GMT



    Вы не можете начинать темы
    Вы не можете отвечать на сообщения
    Вы не можете редактировать свои сообщения
    Вы не можете удалять свои сообщения
    Вы не можете голосовать в опросах
    Вы не можете прикреплять файлы к сообщениям
    Вы не можете скачивать файлы
    Наши партнеры: интернет магазин Ивановского трикотажа textilla.ru