Важное объявление!
У Нас Все раздачи мультитрекерные, при нуле пиров в релизах, можете смело вставать на закачку!
 
Автор Сообщение

HUNTER

Стаж:
4 года 4 месяца
Сообщений:
56790

Репутация: 101

[+] [-]
Вне форума [Профиль] [ЛС]

Королевство / The Kingdom
Страна: США, Германия
Студия: Universal Pictures, Relativity Media
Жанр: боевик, триллер, драма
Год выпуска: 2007
Продолжительность: 01:40:38
Перевод: Профессиональный (многоголосый закадровый) Компания Эй-Би видео
Cубтитры: русские Teletext
Оригинальная аудиодорожка: нет
Режиссер: Питер Берг / Peter Berg
В ролях: Джейми Фокс, Крис Купер, Дженнифер Гарнер, Джейсон Бейтман, Ашраф Бархом, Али Сулимэн, Джереми Пивен, Ричард Дженкинс, Тим Макгро, Кайл Чендлер, Фрэнсис Фишер, Дэнни Хьюстон, Келли Окоин
Описание: Команда из четырех агентов ФБР вылетает в Саудовскую Аравию, чтобы расследовать теракт на американском объекте, унёсший жизни около ста человек, и найти главу террористов Абу Хамзу. По прибытии становится ясно, что миссия будет не из легких. Федералы наталкиваются на враждебность местного населения, считающего террористов современными "Робин Гудами".
Доп. информация: Сценарий: Мэттью Майкл Карнахан
Оператор: Мауро Фиоре
Композитор: Дэнни Элфман
Сэмпл: http://multi-up.com/963707
Тип релиза: HDTV 1080i
Контейнер: TS
Видео: AVC, 1920х1080, 16:9, 8478 Кбит/сек, 25 fps
Аудио: AC 5.1, 384 Кбит/сек, 48 КГц, 6 каналов
Формат субтитров: Teletext

MediaInfo

Общее
Идентификатор : 16 (0x10)
Полное имя : The Kingdom_HD.ts
Формат : MPEG-TS
Размер файла : 6,73 Гбайт
Продолжительность : 1 ч. 40 м.
Режим общего битрейта : Переменный
Общий поток : 9565 Кбит/сек
Видео
Идентификатор : 1902 (0x76E)
Идентификатор меню : 92 (0x5C)
Формат : AVC
Формат/Информация : Advanced Video Codec
Профиль формата : High@L4.0
Параметр CABAC формата : Да
Параметр ReFrames формата : 3 кадра
Идентификатор кодека : 27
Продолжительность : 1 ч. 40 м.
Битрейт : 8478 Кбит/сек
Ширина : 1920 пикселей
Высота : 1080 пикселей
Соотношение сторон : 16:9
Частота кадров : 25,000 кадров/сек
Стандарт вещания : PAL
Цветовое пространство : YUV
Субдискретизация насыщенности : 4:2:0
Битовая глубина : 8 бит
Тип развёртки : Чересстрочная
Порядок развёртки : Верхнее поле первое
Бит/(Пиксели*Кадры) : 0.164
Размер потока : 5,96 Гбайт (89%)
Основные цвета : BT.709
Характеристики трансфера : BT.709
Коэффициенты матрицы : BT.709
Аудио
Идентификатор : 3902 (0xF3E)
Идентификатор меню : 92 (0x5C)
Формат : AC-3
Формат/Информация : Audio Coding 3
Расширение режима : CM (complete main)
Параметр Endianness формата : Big
Идентификатор кодека : 6
Продолжительность : 1 ч. 40 м.
Вид битрейта : Постоянный
Битрейт : 384 Кбит/сек
Каналы : 6 каналов
Расположение каналов : Front: L C R, Side: L R, LFE
Частота : 48,0 КГц
Битовая глубина : 16 бит
Метод сжатия : С потерями
Задержка видео : 79 мс.
Размер потока : 276 Мбайт (4%)
Язык : std
Язык, дополнительно : Clean effects
Текст
Идентификатор : 33 (0x21)-100
Идентификатор меню : 92 (0x5C)
Формат : Teletext
Меню
Идентификатор : 902 (0x386)
Идентификатор меню : 92 (0x5C)
Продолжительность : 1 ч. 40 м.
Список : 1902 (0x76E) (AVC) / 2902 (0xB56) (MPEG Audio, std) / 3902 (0xF3E) (AC-3, std) / 33 (0x21) ()
Язык : / std / std

Скриншоты


_________________
Показать сообщения:    

Текущее время: Сегодня 18:12

Часовой пояс: GMT



Вы не можете начинать темы
Вы не можете отвечать на сообщения
Вы не можете редактировать свои сообщения
Вы не можете удалять свои сообщения
Вы не можете голосовать в опросах
Вы не можете прикреплять файлы к сообщениям
Вы не можете скачивать файлы