Важное объявление!
У Нас Все раздачи мультитрекерные, при нуле пиров в релизах, можете смело вставать на закачку!
 
Автор Сообщение

HUNTER

Стаж:
4 года 4 месяца
Сообщений:
56842

Репутация: 101

[+] [-]
Вне форума [Профиль] [ЛС]

Королева бандитов-
  • Год выпуска: 2013
  • Страна: Россия
  • Жанр: мелодрама
  • Продолжительность: 16x ~00:45:00
  • Перевод: Оригинал
-
  • Режиссер: Валерий Девятилов
  • Продюсер: Александр Кушаев, Ирина Смирнова
  • Оператор: Геннадий Немых
  • Композитор: Юрий Придачин
- -
  • Описание: Полина, красивая и чистая сельская девушка, ждет из армии своего любящего жениха Сергея. К несчастью, Сергей не единственный, кому нужна Полина — хозяин рынка, непререкаемый авторитет Буров, тоже положил глаз на цветущую соседку.Вероятно, эта история могла бы разрешиться, если бы матери Полины не потребовалась срочная дорогостоящая операция. Оказавшись перед тяжелым выбором, героиня выходит замуж за Бурова, который ей ненавистен…
--
  • Премьера (РФ): 18 марта 2013
-
    --
    • Рейтинг:
    --
    • Качество: SATRip
    • Формат: AVI
    • Видео кодек: XviD
    • Аудио кодеk: MP3
    • Видео: 720x400 (16:9), 25.000 fps, XviD, 1 558 Kbps
    • Аудио: Аудио #1: MP3, 192 Kbps, 48.0 KHz, 2 ch
    -

    МедиаИнфо

    Код: copyText_writeLink('this.parentNode.parentNode.nextSibling.nextSibling'); General
    Complete name : Koroleva.banditov.01.seriya.2013.XviD.SATRip.Files-x.avi
    Format : AVI
    Format/Info : Audio Video Interleave
    File size : 550 MiB
    Duration : 43mn 42s
    Overall bit rate : 1 760 Kbps
    Writing application : VirtualDubMod 1.5.10.3 | www.virtualdub-fr.org || (build 2550/release)
    Writing library : VirtualDubMod build 2550/release
    Video
    ID : 0
    Format : MPEG-4 Visual
    Format profile : Advanced Simple@L5
    Format settings, BVOP : Yes
    Format settings, QPel : No
    Format settings, GMC : No warppoints
    Format settings, Matrix : Default (H.263)
    Codec ID : XVID
    Codec ID/Hint : XviD
    Duration : 43mn 42s
    Bit rate : 1 558 Kbps
    Width : 720 pixels
    Height : 400 pixels
    Display aspect ratio : 16:9
    Frame rate : 25.000 fps
    Color space : YUV
    Chroma subsampling : 4:2:0
    Bit depth : 8 bits
    Scan type : Progressive
    Bits/(Pixel*Frame) : 0.216
    Stream size : 487 MiB (89%)
    Writing library : XviD 1.2.1 (UTC 2008-12-04)
    Audio
    ID : 1
    Format : MPEG Audio
    Format version : Version 1
    Format profile : Layer 3
    Codec ID : 55
    Codec ID/Hint : MP3
    Duration : 43mn 42s
    Bit rate mode : Constant
    Bit rate : 192 Kbps
    Channel(s) : 2 channels
    Sampling rate : 48.0 KHz
    Stream size : 60.0 MiB (11%)
    Alignment : Aligned on interleaves
    Interleave, duration : 40 ms (1.00 video frame)
    Interleave, preload duration : 504 ms
    Writing library : LAME3.98r
    Encoding settings : -m s -V 4 -q 2 -lowpass 18.6 -b 192
    -
    -© Оформление by www.rustorka.com- -Не уходите с раздачи, помогайте раздавать! Скачал сам, помоги скачать другим раздавая скачанное. Помните, что файлы раздачи размещены у других пользователей, таких же качающих или уже скачавших как и Вы, поэтому если кто-то удалит файлы и торрент-файл из клиента, то велика возможность того, что материалов раздачи не останется ни у кого и другие, такие же участники сети не смогут их скачать. Давайте начинать перемены с себя.-

    _________________
    Показать сообщения:    

    Текущее время: Сегодня 13:15

    Часовой пояс: GMT



    Вы не можете начинать темы
    Вы не можете отвечать на сообщения
    Вы не можете редактировать свои сообщения
    Вы не можете удалять свои сообщения
    Вы не можете голосовать в опросах
    Вы не можете прикреплять файлы к сообщениям
    Вы не можете скачивать файлы