Важное объявление!
У Нас Все раздачи мультитрекерные, при нуле пиров в релизах, можете смело вставать на закачку!
 
Автор Сообщение

Bad Boy

Стаж:
4 года 3 месяца
Сообщений:
163

Репутация: 10

[+] [-]
Вне форума [Профиль] [ЛС]

КОНТРАБАНДА / Contraband
«Большой куш. Крутая команда. Смертельный риск.»
-Страна: США, Великобритания
Студия: Universal Pictures
Жанр: боевик, триллер, драма, криминал
Год выпуска: 2012
Продолжительность: 01:49:38-Перевод: профессиональный (дублированный) лицензия
Субтитры: русские (Forced) на испанскую речь (отдельно!)-Режиссёр: Бальтасар Кормакур / Baltasar Kormakur-В ролях: Марк Уолберг, Кейт Бекинсейл, Бен Фостер, Джованни Рибизи, Калеб Лэндри Джонс, Дж.К. Симмонс, Лаки Джонсон, Диего Луна, Роберт Уолберг, Джейсон Митчел.-Описание:
Мир контрабандистов — это большие ставки и огромный риск. Cтоит оступиться лишь раз, и тебя ждет смерть. В этом мире Крис был лучшим, его называли Гудини, но он вышел из игры, женился и начал новую жизнь.
К несчастью, Энди, друг Криса, провалил одно дело. Теперь платить по счетам придется обоим. У них есть всего две недели на то, чтобы доставить из Панамы в США 15 миллионов фальшивых долларов, разделенных на 4 партии, каждая размером с Мини Купер. Не успеют — они знают правила…
-6.5/10 (26449) 6.988 (8415)-Rip by ZNG505
Качество видео: BDRip (Исходник Blu Ray Disc)
Формат файла: AVI-Видео: XviD, 720x304 (2.35:1), 23.976 fps, 1444 kbps avg, 0.275 bit/pixel
Аудио: 48 kHz, AC3 Dolby Digital, 3/2 (L,C,R,l,r) + LFE ch, 448 kbps avg (Rus DUB)
Формат субтитров: softsub (SRT)-

MediaInfo

Общее
Полное имя : D:\Torrent Rutracker\Kontrabanda.2012.DUB.XviD.AC3.BDRip._by.ZNG505\Kontrabanda.2012.DUB.XviD.AC3.BDRip._by.ZNG505.avi
Формат : AVI
Формат/Информация : Audio Video Interleave
Размер файла : 1,46 Гбайт
Продолжительность : 1 ч. 49 м.
Общий поток : 1901 Кбит/сек
Программа кодирования : VirtualDubModRus 1.5.10.2 (build 2542/release)
Библиотека кодирования : VirtualDubMod build 2542/release
Видео
Идентификатор : 0
Формат : MPEG-4 Visual
Профиль формата : Advanced Simple@L5
Параметр BVOP формата : 2
Параметр QPel формата : Нет
Параметр GMC формата : Без точки перехода
Параметр матрицы формата : Выборочная
Идентификатор кодека : XVID
Идентификатор кодека/Подсказка : XviD
Продолжительность : 1 ч. 49 м.
Битрейт : 1444 Кбит/сек
Ширина : 720 пикселей
Высота : 304 пикселя
Соотношение сторон : 2,35:1
Частота кадров : 23,976 кадра/сек
Цветовое пространство : YUV
Субдискретизация насыщенности : 4:2:0
Битовая глубина : 8 бит
Тип развёртки : Прогрессивная
Метод сжатия : С потерями
Бит/(Пиксели*Кадры) : 0.275
Размер потока : 1,11 Гбайт (76%)
Библиотека кодирования : XviD 65
Аудио
Идентификатор : 1
Формат : AC-3
Формат/Информация : Audio Coding 3
Расширение режима : CM (complete main)
Идентификатор кодека : 2000
Продолжительность : 1 ч. 49 м.
Вид битрейта : Постоянный
Битрейт : 448 Кбит/сек
Каналы : 6 каналов
Расположение каналов : Front: L C R, Side: L R, LFE
Частота : 48,0 КГц
Битовая глубина : 16 бит
Метод сжатия : С потерями
Размер потока : 351 Мбайт (24%)
Выравнивание : Разделение по промежуткам
Продолжительность промежутка : 42 мс. (1,00 видеокадр)
Время предзагрузки промежутка : 500 мс.
Заголовок : Rus DUB Лицензия

Скриншот c названием фильма

Скриншоты

Показать сообщения:    

Текущее время: Сегодня 11:01

Часовой пояс: GMT



Вы не можете начинать темы
Вы не можете отвечать на сообщения
Вы не можете редактировать свои сообщения
Вы не можете удалять свои сообщения
Вы не можете голосовать в опросах
Вы не можете прикреплять файлы к сообщениям
Вы не можете скачивать файлы