Важное объявление!
У Нас Все раздачи мультитрекерные, при нуле пиров в релизах, можете смело вставать на закачку!
 
Автор Сообщение

HUNTER

Стаж:
4 года 4 месяца
Сообщений:
56755

Репутация: 101

[+] [-]
Вне форума [Профиль] [ЛС]

Вокзал Термини / Stazione Termini / Terminal Station-
Год выпуска: 1953
Страна: Италия, США
Жанр: драма
Продолжительность: 01:28:53
Перевод: Одноголосый закадровый
Оригинальная аудиодорожка: Английская
Cубтитры: Английские-Режиссер: Витторио Де Сика / Vittorio De Sica
В ролях: Дженнифер Джонс / Jennifer Jones, Монтгомери Клифт / Montgomery Clift, Джино Черви / Gino Cervi, Ричард Бэймер / Richard Beymer, Нандо Бруно / Nando Bruno, Меммо Каротенуто / Memmo Carotenuto-Описание:
«Вокзал Термини» — это щемящая история, лишенная и катастрофического взрыва, и катарсиса. Напряжение мрачно нарастает ввиду непроясненных и бесперспективных отношений замужней американки Мэри (Дженнифер Джонс) и итальянца Джанни Дориа (Монтгомери Клифт). Блуждания и бесконечные объяснения любовников на вокзале, ссоры, пощечина. В том упорстве, с каким режиссер сохраняет бессюжетность, кроется формула драматизма. Это фильм о том, что любовь может быть одновременно мимолетной и настоящей. Она возникает в жизни героев лишь "транзитом". Что предпринять, чтобы ее удержать, никто не знает. Поставить заслон между собой и окружающими посторонними людьми двум влюбленным не под силу. К тому же они заведомо ощущают свою внутреннюю вину за то, что собственная социальность тяготит их, но и пренебречь ею они не решаются. Неслучайно Мэри и Джанни постоянно ощущают замешательство и неловкость — как будто крадут что-то или непристойно себя ведут.- | IMDb | Сэмпл-Качество: WEB-DL 720p (SbR)
Контейнер: MKV
Видео: AVC, 968x720 (1.33:1), 23.976 fps, 3924 kbps
Аудио 1: Русский AC3 1.0, 48 kHz, 128kbps
Аудио 2: Английский AC3 1.0, 48 kHz, 192 kbps
Аудио 3: Английкий AAC 2.0, 48 kHz, 122 kbps
Формат субтитров: softsub (SRT)

Скриншоты


MI

General
Unique ID : 238220270585468657918995629115192727904 (0xB3378E24BC9BF711AB86089250515960)
Complete name : Stazione.Termini_Terminal.Station.1953.720p.WEB-DL.AAC2.0.H.264-SbR.mkv
Format : Matroska
Format version : Version 2
File size : 2.71 GiB
Duration : 1h 28mn
Overall bit rate : 4 370 Kbps
Movie name : Stazione Termini / Вокзал Термини (1953) – RuTracker
Encoded date : UTC 2014-09-30 19:37:22
Writing application : mkvmerge v7.0.0 ('Where We Going') 64bit built on Jun 9 2014 15:16:27
Writing library : libebml v1.3.0 + libmatroska v1.4.1
Attachment : Yes
Video
ID : 1
Format : AVC
Format/Info : Advanced Video Codec
Format profile : High@L3.1
Format settings, CABAC : No
Format settings, ReFrames : 2 frames
Codec ID : V_MPEG4/ISO/AVC
Duration : 1h 28mn
Width : 968 pixels
Height : 720 pixels
Display aspect ratio : 4:3
Frame rate mode : Constant
Frame rate : 23.976 fps
Color space : YUV
Chroma subsampling : 4:2:0
Bit depth : 8 bits
Scan type : Progressive
Title : Stazione.Termini_Terminal.Station.1953.720p.WEB-DL.AAC2.0.H.264-SbR
Language : English
Default : Yes
Forced : No
Color primaries : BT.709
Transfer characteristics : BT.709
Matrix coefficients : BT.709
Audio #1
ID : 2
Format : AC-3
Format/Info : Audio Coding 3
Mode extension : CM (complete main)
Format settings, Endianness : Big
Codec ID : A_AC3
Duration : 1h 28mn
Bit rate mode : Constant
Bit rate : 128 Kbps
Channel(s) : 1 channel
Channel positions : Front: C
Sampling rate : 48.0 KHz
Bit depth : 16 bits
Compression mode : Lossy
Stream size : 81.4 MiB (3%)
Title : VO
Language : Russian
Default : Yes
Forced : No
Audio #2
ID : 3
Format : AC-3
Format/Info : Audio Coding 3
Mode extension : CM (complete main)
Format settings, Endianness : Big
Codec ID : A_AC3
Duration : 1h 28mn
Bit rate mode : Constant
Bit rate : 192 Kbps
Channel(s) : 1 channel
Channel positions : Front: C
Sampling rate : 48.0 KHz
Bit depth : 16 bits
Compression mode : Lossy
Stream size : 122 MiB (4%)
Title : DVD
Language : English
Default : No
Forced : No
Audio #3
ID : 4
Format : AAC
Format/Info : Advanced Audio Codec
Format profile : LC
Codec ID : A_AAC
Duration : 1h 28mn
Channel(s) : 2 channels
Channel positions : Front: L R
Sampling rate : 48.0 KHz
Compression mode : Lossy
Title : iTunes
Language : English
Default : No
Forced : No
Text
ID : 5
Format : UTF-8
Codec ID : S_TEXT/UTF8
Codec ID/Info : UTF-8 Plain Text
Language : English
Default : No
Forced : No
Menu
00:00:00.000 : en:Logos/Opening credits
00:02:15.000 : en:A moment of hesitation
00:04:23.000 : en:Next train for Milan
00:07:46.000 : en:"Forced to leave, child sick"
00:11:44.000 : en:A gift for Kathy
00:13:23.000 : en:All aboard
00:16:35.000 : en:Giovanni appears
00:21:21.000 : en:A place to talk
00:31:35.000 : en:To be alone
00:36:53.000 : en:"Good-bye, Giovanni"
00:40:44.000 : en:Too late
00:49:05.000 : en:Good wife, good mother
00:54:09.000 : en:Across the tracks
00:58:14.000 : en:An indiscretion
01:04:40.000 : en:Common criminals
01:08:26.000 : en:Office of the commissariat
01:19:19.000 : en:There's not much time
01:22:33.000 : en:Last train for Paris

_________________
Показать сообщения:    

Текущее время: Сегодня 17:26

Часовой пояс: GMT



Вы не можете начинать темы
Вы не можете отвечать на сообщения
Вы не можете редактировать свои сообщения
Вы не можете удалять свои сообщения
Вы не можете голосовать в опросах
Вы не можете прикреплять файлы к сообщениям
Вы не можете скачивать файлы