Важное объявление!
У Нас Все раздачи мультитрекерные, при нуле пиров в релизах, можете смело вставать на закачку!
 
Автор Сообщение

HUNTER

Стаж:
4 года 4 месяца
Сообщений:
56798

Репутация: 101

[+] [-]
Вне форума [Профиль] [ЛС]

Конец тура / The End of the Tour
Страна: США
Студия: Modern Man Films, Anonymous Content, Kilburn Media
Жанр: драма
Год выпуска: 2015
Продолжительность: 01:46:10
Перевод: Профессиональный (многоголосый закадровый)
Cубтитры: английские
Оригинальная аудиодорожка: английский
Режиссер: Джеймс Понсольдт / James Ponsoldt
В ролях: Джесси Айзенберг, Джейсон Сигел, Джоан Кьюсак, Анна Кламски, Мэми Гаммер, Рон Ливингстон, Мики Самнер, Бекки Энн Бэйкер, Jennifer Jelsema, Челси Энн Лоуренс
Описание: Вскоре после публикации романа «Бесконечная шутка» (позднее вошедшим в список ста лучших романов XX века по мнению Time) писатель Дэвид Фостер Уоллес отправляется в поездку с журналистом Rolling Stones Дэвидом Липски, готовящем о нем статью. За пять дней между ними возникла некая доверительная связь, позволившая каждому из них поделиться своими сокровенными мыслями и желаниями. Так или иначе, интервью никогда не было опубликовано - аудиокассеты отправились в шкаф Липски, а сами герои так больше и не встретились.

Тип релиза: BDRip 720p
Контейнер: MKV
Видео: MPEG-4 AVC, 8230 Кбит/с, 1280x534, 23,976 fps
Аудио: Rus, AC3, 192 kb/s (2 ch), 48 kHz
Аудио 2: Eng, AC3, 640 kb/s (6 ch), 48 kHz
Формат субтитров: softsub (SRT)

MediaInfo

x264 [info]: frame I:871 Avg QP:17.67 size: 96723
x264 [info]: frame P:26366 Avg QP:18.96 size: 55696
x264 [info]: frame B:125495 Avg QP:19.69 size: 40998
Format : Matroska
Format version : Version 4 / Version 2
File size : 6.86 GiB
Duration : 1h 46mn
Overall bit rate : 9 246 Kbps
Movie name : Конец тура. (Tonik)
Encoded date : UTC 2016-01-09 05:47:18
Writing application : mkvmerge v7.1.0 ('Good Love') 64bit built on Jul 27 2014 13:06:55
Writing library : libebml v1.3.0 + libmatroska v1.4.1
_STATISTICS_WRITING_APP : mkvmerge v7.1.0 ('Good Love') 64bit built on Jul 27 2014 13:06:55
_STATISTICS_WRITING_DATE_UTC : 2016-01-09 05:47:18
_STATISTICS_TAGS : BPS DURATION NUMBER_OF_FRAMES NUMBER_OF_BYTES
DURATION : 01:46:10.240000000
NUMBER_OF_FRAMES : 199070
NUMBER_OF_BYTES : 152885760
Video
ID : 1
Format : AVC
Format/Info : Advanced Video Codec
Format profile : High@L4.1
Format settings, CABAC : Yes
Format settings, ReFrames : 12 frames
Codec ID : V_MPEG4/ISO/AVC
Duration : 1h 46mn
Bit rate : 8 230 Kbps
Width : 1 280 pixels
Height : 534 pixels
Display aspect ratio : 2.40:1
Frame rate mode : Constant
Frame rate : 23.976 fps
Color space : YUV
Chroma subsampling : 4:2:0
Bit depth : 8 bits
Scan type : Progressive
Bits/(Pixel*Frame) : 0.502
Stream size : 6.10 GiB (89%)
Writing library : x264 core 148 r2638+53 bb29004 t_mod_Custom [8-bit@all X86_64]
Encoding settings : cabac=1 / ref=12 / deblock=1:-3:-3 / analyse=0x3:0x133 / me=umh / subme=11 / psy=1 / fade_compensate=0.00 / psy_rd=1.10:0.00 / mixed_ref=1 / me_range=48 / chroma_me=1 / trellis=2 / 8x8dct=1 / cqm=0 / deadzone=21,11 / fast_pskip=1 / chroma_qp_offset=-2 / threads=8 / lookahead_threads=2 / sliced_threads=0 / nr=0 / decimate=1 / interlaced=0 / bluray_compat=0 / constrained_intra=0 / fgo=0 / bframes=11 / b_pyramid=2 / b_adapt=2 / b_bias=0 / direct=3 / weightb=1 / open_gop=0 / weightp=2 / keyint=250 / keyint_min=23 / scenecut=40 / intra_refresh=0 / rc_lookahead=150 / rc=crf / mbtree=0 / crf=18.3000 / qcomp=0.70 / qpmin=0:0:0 / qpmax=69:69:69 / qpstep=4 / vbv_maxrate=50000 / vbv_bufsize=62500 / crf_max=0.0 / nal_hrd=none / filler=0 / ip_ratio=1.20 / pb_ratio=1.10 / aq=1:0.50 / aq-sensitivity=10.00 / aq-factor=1.00:1.00:1.00 / aq2=0 / aq3=0
Language : English
Default : Yes
Forced : No
_STATISTICS_WRITING_APP : mkvmerge v7.1.0 ('Good Love') 64bit built on Jul 27 2014 13:06:55
_STATISTICS_WRITING_DATE_UTC : 2016-01-09 05:47:18
_STATISTICS_TAGS : BPS DURATION NUMBER_OF_FRAMES NUMBER_OF_BYTES
DURATION : 01:46:10.197000000
NUMBER_OF_FRAMES : 152732
NUMBER_OF_BYTES : 6697729289
Audio #1
ID : 2
Format : AC-3
Format/Info : Audio Coding 3
Mode extension : CM (complete main)
Format settings, Endianness : Big
Codec ID : A_AC3
Duration : 1h 46mn
Bit rate mode : Constant
Bit rate : 192 Kbps
Channel(s) : 2 channels
Channel positions : Front: L R
Sampling rate : 48.0 KHz
Bit depth : 16 bits
Compression mode : Lossy
Stream size : 146 MiB (2%)
Language : Russian
Default : Yes
Forced : No
Audio #2
ID : 3
Format : AC-3
Format/Info : Audio Coding 3
Mode extension : CM (complete main)
Format settings, Endianness : Big
Codec ID : A_AC3
Duration : 1h 46mn
Bit rate mode : Constant
Bit rate : 640 Kbps
Channel(s) : 6 channels
Channel positions : Front: L C R, Side: L R, LFE
Sampling rate : 48.0 KHz
Bit depth : 16 bits
Compression mode : Lossy
Stream size : 486 MiB (7%)
Language : English
Default : No
Forced : No
Text #1
ID : 4
Format : UTF-8
Codec ID : S_TEXT/UTF8
Codec ID/Info : UTF-8 Plain Text
Language : English
Default : No
Forced : No
Text #2
ID : 5
Format : UTF-8
Codec ID : S_TEXT/UTF8
Codec ID/Info : UTF-8 Plain Text
Title : SDH
Language : English
Default : No
Forced : No
Menu
00:00:00.000 : en:Chapter 1
00:03:21.743 : en:Chapter 2
00:12:07.894 : en:Chapter 3
00:19:51.190 : en:Chapter 4
00:32:19.146 : en:Chapter 5
00:38:18.046 : en:Chapter 6
00:43:48.668 : en:Chapter 7
00:48:33.911 : en:Chapter 8
00:53:36.672 : en:Chapter 9
00:59:31.276 : en:Chapter 10
01:07:33.841 : en:Chapter 11
01:14:04.398 : en:Chapter 12
01:21:59.331 : en:Chapter 13
01:25:07.728 : en:Chapter 14
01:32:02.517 : en:Chapter 15
01:38:22.522 : en:Chapter 16

Скриншоты


_________________
Показать сообщения:    

Текущее время: Сегодня 02:31

Часовой пояс: GMT



Вы не можете начинать темы
Вы не можете отвечать на сообщения
Вы не можете редактировать свои сообщения
Вы не можете удалять свои сообщения
Вы не можете голосовать в опросах
Вы не можете прикреплять файлы к сообщениям
Вы не можете скачивать файлы