Важное объявление!
У Нас Все раздачи мультитрекерные, при нуле пиров в релизах, можете смело вставать на закачку!
 
Автор Сообщение

HUNTER

Стаж:
4 года 4 месяца
Сообщений:
56822

Репутация: 101

[+] [-]
Вне форума [Профиль] [ЛС]

Конго / Congo
Страна: США
Студия: Paramount Pictures, The Kennedy/Marshall Company
Жанр: фантастика, боевик, детектив, приключения
Год выпуска: 1995
Продолжительность: 01:48:15
Перевод: Профессиональный (многоголосый закадровый)
Перевод 2: Профессиональный (двухголосый закадровый) Премьер Видео
Перевод 3: Профессиональный (двухголосый закадровый) Рaramount Сhannel
Перевод 4: Профессиональный (многоголосый закадровый) НТВ
Перевод 5: Авторский (одноголосый закадровый) Ю. Живов
Перевод 6: Авторский (одноголосый закадровый) В. Горчаков
Перевод 7: Авторский (одноголосый закадровый) П. Гланц
Перевод 8: Авторский (одноголосый закадровый) А. Гаврилов
Cубтитры: русские, английские
Оригинальная аудиодорожка: английский
Режиссер: Фрэнк Маршалл / Frank Marshall
В ролях: Лора Линни, Дилан Уолш, Эрни Хадсон, Тим Карри, Грант Хеслов, Джо Дон Бейкер, Лорен Но, Мэри Эллен Трейнор, Мисти Росас, Стюарт Пэнкин
Описание: Их обстреливают тепловыми ракетами, на них нападает бешеный трехтонный бегемот, им приходится продираться сквозь непроходимые джунгли. Но несмотря ни на что, экспедиция продолжается.
Обаятельная горилла по кличке Эми, бывшая частью научного эксперимента, возвращается на родину, в джунгли. За ней следуют романтичный молодой профессор, самоуверенная женщина-эксперт по электронике, грубоватый проводник, эксцентричный исследователь и многие другие.
Они не знают, что она приведет их не просто в свой родной дом, а в загадочный край, где должен находиться Потерянный Город Зинж, богатый своими алмазными месторождениями. Но… все неизвестное таит в себе смертельную опасность.
Кинопоиск|Imdb|Сэмпл
Тип релиза: BDRip 1080p
Контейнер: MKV
Видео: MPEG4 Video (H264) 1920x1080 23.976fps 14.9 Mbps
Аудио: Русский DTS / 6 ch / 48.0 KHz / 1 509 Kbps
Аудио 2: Русский AC-3 / 2 ch / 48.0 KHz / 192 Kbps | Премьер Видео
Аудио 3: Русский AC-3 / 2 ch / 48.0 KHz / 192 Kbps | Рaramount Сhannel
Аудио 4: Русский AC-3 / 2 ch / 48.0 KHz / 192 Kbps | НТВ
Аудио 5: Русский DTS / 6 ch / 48.0 KHz / 1 509 Kbps | Живов
Аудио 6: Русский DTS / 6 ch / 48.0 KHz / 1 509 Kbps | Горчаков
Аудио 7: Русский DTS / 6 ch / 48.0 KHz / 1 509 Kbps | Гланц
Аудио 8: Русский DTS / 6 ch / 48.0 KHz / 1 509 Kbps | Гаврилов
Аудио 9: Английский DTS / 6 ch / 48.0 KHz / 1 509 Kbps
Формат субтитров: softsub (SRT)

MediaInfo

General
Unique ID : 248173329484314129840323176918605994890 (0xBAB471D5944F5360828063D0C1DD9B8A)
Complete name : D:\Congo.1995.BDRip.1080p.DTS.mkv
Format : Matroska
Format version : Version 4 / Version 2
File size : 18.5 GiB
Duration : 1h 48mn
Overall bit rate : 24.5 Mbps
Encoded date : UTC 2014-11-15 07:20:00
Writing application : mkvmerge v6.9.1 ('Blue Panther') 64bit built on Apr 18 2014 18:23:38
Writing library : libebml v1.3.0 + libmatroska v1.4.1
Video
ID : 1
Format : AVC
Format/Info : Advanced Video Codec
Format profile : High@L4.1
Format settings, CABAC : Yes
Format settings, ReFrames : 4 frames
Codec ID : V_MPEG4/ISO/AVC
Duration : 1h 48mn
Nominal bit rate : 14.9 Mbps
Width : 1 920 pixels
Height : 1 080 pixels
Display aspect ratio : 16:9
Frame rate mode : Constant
Frame rate : 23.976 fps
Color space : YUV
Chroma subsampling : 4:2:0
Bit depth : 8 bits
Scan type : Progressive
Bits/(Pixel*Frame) : 0.300
Title : MPEG-4AVC@High Profile L4.1, 24/1.001 fps @ 14900 kbps
Writing library : x264 core 142 r2479 dd79a61
Encoding settings : cabac=1 / ref=4 / deblock=1:-3:-3 / analyse=0x3:0x133 / me=umh / subme=11 / psy=1 / psy_rd=1.00:0.00 / mixed_ref=1 / me_range=32 / chroma_me=1 / trellis=2 / 8x8dct=1 / cqm=0 / deadzone=21,11 / fast_pskip=0 / chroma_qp_offset=-2 / threads=6 / lookahead_threads=1 / sliced_threads=0 / nr=0 / decimate=0 / interlaced=0 / bluray_compat=0 / constrained_intra=0 / bframes=6 / b_pyramid=2 / b_adapt=2 / b_bias=0 / direct=3 / weightb=1 / open_gop=0 / weightp=2 / keyint=240 / keyint_min=23 / scenecut=40 / intra_refresh=0 / rc_lookahead=60 / rc=2pass / mbtree=1 / bitrate=14900 / ratetol=1.0 / qcomp=0.60 / qpmin=0 / qpmax=69 / qpstep=4 / cplxblur=20.0 / qblur=0.5 / vbv_maxrate=45000 / vbv_bufsize=45000 / nal_hrd=none / filler=0 / ip_ratio=1.40 / aq=1:0.60
Language : English
Default : Yes
Forced : No
DURATION : 01:48:14.613000000
NUMBER_OF_FRAMES : 155715
NUMBER_OF_BYTES : 12090080809
_STATISTICS_WRITING_APP : mkvmerge v7.3.0 ('Nouages') 64bit built on Oct 22 2014 18:53:34
_STATISTICS_WRITING_DATE_UTC : 2014-10-27 13:02:25
_STATISTICS_TAGS : BPS DURATION NUMBER_OF_FRAMES NUMBER_OF_BYTES
Audio #1
ID : 2
Format : DTS
Format/Info : Digital Theater Systems
Mode : 16
Format settings, Endianness : Big
Codec ID : A_DTS
Duration : 1h 48mn
Bit rate mode : Constant
Bit rate : 1 509 Kbps
Channel count : 6 channels
Channel positions : Front: L C R, Side: L R, LFE
Sampling rate : 48.0 KHz
Bit depth : 24 bits
Compression mode : Lossy
Stream size : 1.14 GiB (6%)
Title : MVO
Language : Russian
Default : Yes
Forced : No
Audio #2
ID : 3
Format : AC-3
Format/Info : Audio Coding 3
Mode extension : CM (complete main)
Format settings, Endianness : Big
Codec ID : A_AC3
Duration : 1h 48mn
Bit rate mode : Constant
Bit rate : 192 Kbps
Channel count : 2 channels
Channel positions : Front: L R
Sampling rate : 48.0 KHz
Bit depth : 16 bits
Compression mode : Lossy
Stream size : 149 MiB (1%)
Title : DVO (Премьер Видео)
Language : Russian
Default : No
Forced : No
Audio #3
ID : 4
Format : AC-3
Format/Info : Audio Coding 3
Mode extension : CM (complete main)
Format settings, Endianness : Big
Codec ID : A_AC3
Duration : 1h 48mn
Bit rate mode : Constant
Bit rate : 192 Kbps
Channel count : 2 channels
Channel positions : Front: L R
Sampling rate : 48.0 KHz
Bit depth : 16 bits
Compression mode : Lossy
Stream size : 149 MiB (1%)
Title : DVO (Рaramount Сhannel)
Language : Russian
Default : No
Forced : No
Audio #4
ID : 5
Format : AC-3
Format/Info : Audio Coding 3
Mode extension : CM (complete main)
Format settings, Endianness : Big
Codec ID : A_AC3
Duration : 1h 48mn
Bit rate mode : Constant
Bit rate : 192 Kbps
Channel count : 2 channels
Channel positions : Front: L R
Sampling rate : 48.0 KHz
Bit depth : 16 bits
Compression mode : Lossy
Stream size : 149 MiB (1%)
Title : MVO (НТВ)
Language : Russian
Default : No
Forced : No
Audio #5
ID : 6
Format : DTS
Format/Info : Digital Theater Systems
Mode : 16
Format settings, Endianness : Big
Codec ID : A_DTS
Duration : 1h 48mn
Bit rate mode : Constant
Bit rate : 1 509 Kbps
Channel count : 6 channels
Channel positions : Front: L C R, Side: L R, LFE
Sampling rate : 48.0 KHz
Bit depth : 24 bits
Compression mode : Lossy
Stream size : 1.14 GiB (6%)
Title : AVO (Ю. Живов)
Language : Russian
Default : No
Forced : No
Audio #6
ID : 7
Format : DTS
Format/Info : Digital Theater Systems
Mode : 16
Format settings, Endianness : Big
Codec ID : A_DTS
Duration : 1h 48mn
Bit rate mode : Constant
Bit rate : 1 509 Kbps
Channel count : 6 channels
Channel positions : Front: L C R, Side: L R, LFE
Sampling rate : 48.0 KHz
Bit depth : 24 bits
Compression mode : Lossy
Stream size : 1.14 GiB (6%)
Title : AVO (В. Горчаков)
Language : Russian
Default : No
Forced : No
Audio #7
ID : 8
Format : DTS
Format/Info : Digital Theater Systems
Codec ID : A_DTS
Duration : 1h 48mn
Channel count : 6 channels
Sampling rate : 48.0 KHz
Compression mode : Lossy
Title : AVO (П. Гланц)
Language : Russian
Default : No
Forced : No
Audio #8
ID : 9
Format : DTS
Format/Info : Digital Theater Systems
Codec ID : A_DTS
Duration : 1h 48mn
Channel count : 6 channels
Sampling rate : 48.0 KHz
Compression mode : Lossy
Title : AVO (А. Гаврилов)
Language : Russian
Default : No
Forced : No
Audio #9
ID : 10
Format : DTS
Format/Info : Digital Theater Systems
Codec ID : A_DTS
Duration : 1h 48mn
Channel count : 6 channels
Sampling rate : 48.0 KHz
Compression mode : Lossy
Language : English
Default : No
Forced : No
Text #1
ID : 11
Format : UTF-8
Codec ID : S_TEXT/UTF8
Codec ID/Info : UTF-8 Plain Text
Language : Russian
Default : No
Forced : No
Text #2
ID : 12
Format : UTF-8
Codec ID : S_TEXT/UTF8
Codec ID/Info : UTF-8 Plain Text
Language : English
Default : No
Forced : No
Menu
00:00:00.000 : en:00:00:00.000
00:10:21.704 : en:00:10:21.704
00:16:42.793 : en:00:16:42.793
00:23:09.805 : en:00:23:09.805
00:30:14.146 : en:00:30:14.146
00:33:52.530 : en:00:33:52.530
00:43:04.999 : en:00:43:04.999
00:49:26.338 : en:00:49:26.338
00:55:16.522 : en:00:55:16.522
01:01:46.745 : en:01:01:46.745
01:07:10.193 : en:01:07:10.193
01:14:06.525 : en:01:14:06.525
01:21:36.141 : en:01:21:36.141
01:28:49.616 : en:01:28:49.616
01:34:25.493 : en:01:34:25.493
01:40:14.091 : en:01:40:14.091

Скриншоты


_________________
Показать сообщения:    

Текущее время: Сегодня 21:06

Часовой пояс: GMT



Вы не можете начинать темы
Вы не можете отвечать на сообщения
Вы не можете редактировать свои сообщения
Вы не можете удалять свои сообщения
Вы не можете голосовать в опросах
Вы не можете прикреплять файлы к сообщениям
Вы не можете скачивать файлы