Важное объявление!
У Нас Все раздачи мультитрекерные, при нуле пиров в релизах, можете смело вставать на закачку!
 
Автор Сообщение

HUNTER

Стаж:
4 года 4 месяца
Сообщений:
56848

Репутация: 101

[+] [-]
Вне форума [Профиль] [ЛС]

Конвой под прицелом / Caught in the Headlights
Страна: Канада
Жанр: боевик
Год выпуска: 2005
Продолжительность: 01:26:30
Перевод: Профессиональный (двухголосый закадровый)
Cубтитры: нет
Оригинальная аудиодорожка: английский
Издатель: Мистерия звука
Режиссер: Гэвин Уайлдинг / Gavin Wilding
В ролях: Эрика Элениак, Ким Коутс, Бриджитта Дау, Стейси Кич, Эрин Грэй, Гари Чок, Элисон Хилл, Стивен Хусар, Лиэнн Р. Джонсон
Описание: Агент Кейт Паркер получает задание по доставке сбежавшей свидетельницы. Но, странным образом, их маршрут становится известен, и рядовая операция превращается в смертельную гонку. А когда к ним подключается сотрудник ЦРУ, Кейт начинает понимать, что на ее подопечную открыта настоящая охота! IMDb
Меню: есть, русский, анимированное, озвученное
Сэмпл: https://yadi.sk/i/qVEOzrTytyppv
Тип релиза: DVD5
Контейнер: DVD-Video
Видео: MPEG-2, PAL, 720x576, VBR, 4:3, 25 fps, 6000 kbps
Аудио: английский, 224 kbps, 48KHz, 2ch
Аудио 2: русский, 256 kbps, 48KHz, 2ch

MediaInfo

General
Complete name : E:\Caught in the Headlights - Конвой под прицелом (2005) DVD5\VIDEO_TS\VTS_03_1.VOB
Format : MPEG-PS
File size : 1 024 MiB
Duration : 23mn 44s
Overall bit rate mode : Variable
Overall bit rate : 6 030 Kbps
Video
ID : 224 (0xE0)
Format : MPEG Video
Format version : Version 2
Format profile : Main@Main
Format settings, BVOP : Yes
Format settings, Matrix : Custom
Format settings, GOP : M=3, N=12
Format settings, picture structure : Frame
Duration : 23mn 44s
Bit rate mode : Variable
Bit rate : 5 430 Kbps
Maximum bit rate : 9 240 Kbps
Width : 720 pixels
Height : 576 pixels
Display aspect ratio : 4:3
Frame rate : 25.000 fps
Standard : PAL
Color space : YUV
Chroma subsampling : 4:2:0
Bit depth : 8 bits
Scan type : Interlaced
Scan order : Top Field First
Compression mode : Lossy
Bits/(Pixel*Frame) : 0.524
Time code of first frame : 00:45:58:18
Time code source : Group of pictures header
GOP, Open/Closed : Closed
Stream size : 922 MiB (90%)
Color primaries : BT.601 PAL
Transfer characteristics : BT.470 System B, BT.470 System G
Matrix coefficients : BT.601
Audio #1
ID : 189 (0xBD)-128 (0x80)
Format : AC-3
Format/Info : Audio Coding 3
Mode extension : CM (complete main)
Format settings, Endianness : Big
Muxing mode : DVD-Video
Duration : 23mn 43s
Bit rate mode : Constant
Bit rate : 224 Kbps
Channel(s) : 2 channels
Channel positions : Front: L R
Sampling rate : 48.0 KHz
Compression mode : Lossy
Delay relative to video : 760ms
Stream size : 38.0 MiB (4%)
Audio #2
ID : 189 (0xBD)-129 (0x81)
Format : AC-3
Format/Info : Audio Coding 3
Mode extension : CM (complete main)
Format settings, Endianness : Big
Muxing mode : DVD-Video
Duration : 23mn 43s
Bit rate mode : Constant
Bit rate : 256 Kbps
Channel(s) : 2 channels
Channel positions : Front: L R
Sampling rate : 48.0 KHz
Compression mode : Lossy
Delay relative to video : 360ms
Stream size : 43.5 MiB (4%)
Menu

DVDInfo

Title: Caught in the Headlights - Конвой под прицелом (2005) DVD5
Size: 3.64 Gb ( 3 820 310,00 KBytes ) - DVD-5
Enabled regions: 1, 2, 3, 4, 5, 6
VTS_01 :
Play Length: 00:00:03
Video: PAL 4:3 (720x576) VBR
VTS_02 :
Play Length: 00:00:10
Video: PAL 4:3 (720x576) VBR
Audio:
Russian (Dolby AC3, 6 ch)
VTS_03 :
Play Length: 01:26:30
Video: PAL 4:3 (720x576) VBR
Audio:
Russian (Dolby AC3, 2 ch)
English (Dolby AC3, 2 ch)
* Menus Information *
VIDEO_TS Menu
Video:
PAL 4:3 (720x576) VBR
English Language Unit :
Title Menu
VTS_01 Menu
Video:
PAL 4:3 (720x576) VBR
Audio:
Not specified (Dolby AC3, 2 ch)
English Language Unit :
Root Menu
VTS_02 Menu
Video:
PAL 4:3 (720x576) VBR
English Language Unit :
Root Menu
VTS_03 Menu
Video:
PAL 4:3 (720x576) VBR
English Language Unit :
Root Menu

Скриншоты меню

Скриншоты


_________________
Показать сообщения:    

Текущее время: Сегодня 03:45

Часовой пояс: GMT



Вы не можете начинать темы
Вы не можете отвечать на сообщения
Вы не можете редактировать свои сообщения
Вы не можете удалять свои сообщения
Вы не можете голосовать в опросах
Вы не можете прикреплять файлы к сообщениям
Вы не можете скачивать файлы
Наши партнеры: интернет магазин Ивановского трикотажа textilla.ru