Важное объявление!
У Нас Все раздачи мультитрекерные, при нуле пиров в релизах, можете смело вставать на закачку!
 
Автор Сообщение

димитри37

Стаж:
3 года 8 месяцев
Сообщений:
1237

Репутация: 127

[+] [-]
Вне форума [Профиль] [ЛС]

Кон-Тики / Kon-Tiki
Страна: Великобритания, Норвегия, Дания
Студия: Recorded Picture Company (RPC), Nordisk Film Production, DCM Productions
Жанр: приключения, биография, история
Год выпуска: 2012
Продолжительность: 01:49:51
Перевод: Профессиональный (дублированный) [Blu-ray Rus]
Cубтитры: нет
Режиссер: Хоаким Роннинг / Joachim Ronning, Эспен Сандберг / Espen Sandberg
В ролях: Пал Сверре Валхейм Хэйген, Андерс Баасмо Кристиансен, Густаф Скарсгард, Одд Магнус Уильямсон, Тобиас Зантелман, Якоб Офтебро, Агнес Киттелсен, Томас Арнольд, Йорген Бертаге, Элинор Бурк, Мануэль Коши, Сэм Чэпман, Стефан Кронуолл, Катинка Эгрес, Йен Кнауэр, Оле Слетнер, Ричард Триндер
Описание: Это известная история о том, как норвежский путешественник Тур Хейердал в 1947 году пересёк Тихий океан от Перу до Полинезии на бальсовом плоту. Таким способом он хотел доказать свою теорию о заселении Полинезии из Южной Америки, а не из Азии, как тогда считалось.

Релиз: fanatus
Качество видео: BDRip (AVC)
Исходник: Blu-ray 1080i [Rus]
Контейнер: MKV
Видео: MPEG-4 AVC, 2412 kbps , 1024x428 (2.40:1), 25.000 fps, 0.220 bit/pixel
Аудио: русский (AC3, 6 ch, 48 kHz, 448 kbps)
Главы: есть

MediaInfo

General
Unique ID : 197821386439152212005149868933944294521 (0x94D3035FA7CB20FD9D6A997EEC11BC79)
Complete name : D:\Kon-Tiki.2012.x264.BDRip.(AVC).fanatus.mkv
Format : Matroska
Format version : Version 2
File size : 2.18 GiB
Duration : 1h 49mn
Overall bit rate : 2 863 Kbps
Movie name : Kon-Tiki (2012) - fanatus
Encoded date : UTC 2013-05-23 12:14:59
Writing application : mkvmerge v3.4.0 ('Rapunzel') сборка от May 15 2010 09:38:20
Writing library : libebml v0.8.0 + libmatroska v0.9.0
Video
ID : 1
Format : AVC
Format/Info : Advanced Video Codec
Format profile : High@L4.1
Format settings, CABAC : Yes
Format settings, ReFrames : 10 frames
Codec ID : V_MPEG4/ISO/AVC
Duration : 1h 49mn
Bit rate : 2 412 Kbps
Width : 1 024 pixels
Height : 428 pixels
Display aspect ratio : 2.40:1
Frame rate : 25.000 fps
Color space : YUV
Chroma subsampling : 4:2:0
Bit depth : 8 bits
Scan type : Progressive
Bits/(Pixel*Frame) : 0.220
Stream size : 1.80 GiB (82%)
Title : Kon-Tiki (2012)
Writing library : x264 core 133 r2334 a3ac64b
Encoding settings : cabac=1 / ref=10 / deblock=1:-2:-2 / analyse=0x3:0x113 / me=umh / subme=11 / psy=1 / psy_rd=1.03:0.00 / mixed_ref=1 / me_range=48 / chroma_me=1 / trellis=2 / 8x8dct=1 / cqm=0 / deadzone=21,11 / fast_pskip=0 / chroma_qp_offset=-2 / threads=16 / lookahead_threads=3 / sliced_threads=0 / nr=0 / decimate=0 / interlaced=0 / bluray_compat=0 / constrained_intra=0 / bframes=12 / b_pyramid=2 / b_adapt=2 / b_bias=0 / direct=3 / weightb=1 / open_gop=0 / weightp=2 / keyint=250 / keyint_min=25 / scenecut=40 / intra_refresh=0 / rc_lookahead=125 / rc=2pass / mbtree=0 / bitrate=2412 / ratetol=1.0 / qcomp=0.60 / qpmin=0 / qpmax=69 / qpstep=4 / cplxblur=20.0 / qblur=0.5 / vbv_maxrate=50000 / vbv_bufsize=62500 / nal_hrd=none / ip_ratio=1.40 / pb_ratio=1.30 / aq=1:0.90 / zones=153983,163795,q=35
Language : Norwegian
Default : Yes
Forced : No
Audio
ID : 2
Format : AC-3
Format/Info : Audio Coding 3
Mode extension : CM (complete main)
Format settings, Endianness : Big
Codec ID : A_AC3
Duration : 1h 49mn
Bit rate mode : Constant
Bit rate : 448 Kbps
Channel(s) : 6 channels
Channel positions : Front: L C R, Side: L R, LFE
Sampling rate : 48.0 KHz
Bit depth : 16 bits
Compression mode : Lossy
Stream size : 350 MiB (16%)
Title : Dub
Language : Russian
Default : Yes
Forced : No
Menu
00:00:00.000 : en:Chapter 01
00:00:40.000 : en:Chapter 02
00:01:37.840 : en:Chapter 03
00:12:42.640 : en:Chapter 04
00:27:36.120 : en:Chapter 05
00:44:12.320 : en:Chapter 06
00:57:04.200 : en:Chapter 07
01:09:49.080 : en:Chapter 08
01:21:06.280 : en:Chapter 09
01:33:56.760 : en:Chapter 10

x264 [info]

---[Information] [23.05.2013 11:13:08] raw [info]: 1024x428p 1:1 @ 25/1 fps (cfr)
---[Information] [23.05.2013 11:13:08] x264 [info]: using SAR=1/1
---[Information] [23.05.2013 11:13:08] x264 [info]: using cpu capabilities: MMX2 SSE2Fast SSSE3 SSE4.2 AVX
---[Information] [23.05.2013 11:13:08] x264 [info]: profile High, level 4.1
---[Information] [23.05.2013 15:06:00] x264 [info]: frame I:1170 Avg QP:17.51 size: 59873
---[Information] [23.05.2013 15:06:00] x264 [info]: frame P:40789 Avg QP:20.78 size: 21827
---[Information] [23.05.2013 15:06:00] x264 [info]: frame B:121837 Avg QP:22.82 size: 8336
---[Information] [23.05.2013 15:06:00] x264 [info]: consecutive B-frames: 3.8% 4.4% 9.8% 31.9% 18.9% 16.8% 8.1% 1.6% 1.3% 0.5% 0.4% 0.7% 1.7%
---[Information] [23.05.2013 15:06:00] x264 [info]: mb I I16..4: 9.0% 70.1% 20.9%
---[Information] [23.05.2013 15:06:00] x264 [info]: mb P I16..4: 1.4% 13.9% 2.5% P16..4: 30.6% 33.7% 10.1% 0.0% 0.0% skip: 7.8%
---[Information] [23.05.2013 15:06:00] x264 [info]: mb B I16..4: 0.2% 2.1% 0.3% B16..8: 34.1% 18.9% 3.1% direct: 5.9% skip:35.5% L0:40.4% L1:45.3% BI:14.2%
---[Information] [23.05.2013 15:06:00] x264 [info]: 8x8 transform intra:78.1% inter:60.7%
---[Information] [23.05.2013 15:06:00] x264 [info]: direct mvs spatial:94.7% temporal:5.3%
---[Information] [23.05.2013 15:06:00] x264 [info]: coded y,uvDC,uvAC intra: 87.9% 59.2% 27.2% inter: 27.1% 15.3% 4.8%
---[Information] [23.05.2013 15:06:00] x264 [info]: i16 v,h,dc,p: 20% 21% 4% 55%
---[Information] [23.05.2013 15:06:00] x264 [info]: i8 v,h,dc,ddl,ddr,vr,hd,vl,hu: 6% 12% 6% 9% 13% 12% 15% 11% 16%
---[Information] [23.05.2013 15:06:00] x264 [info]: i4 v,h,dc,ddl,ddr,vr,hd,vl,hu: 10% 11% 4% 8% 14% 13% 15% 10% 16%
---[Information] [23.05.2013 15:06:00] x264 [info]: i8c dc,h,v,p: 24% 45% 15% 15%
---[Information] [23.05.2013 15:06:00] x264 [info]: Weighted P-Frames: Y:4.8% UV:1.3%
---[Information] [23.05.2013 15:06:00] x264 [info]: ref P L0: 48.9% 12.2% 15.8% 6.0% 4.8% 3.5% 3.1% 1.9% 1.7% 1.7% 0.4% 0.0%
---[Information] [23.05.2013 15:06:00] x264 [info]: ref B L0: 78.4% 9.7% 4.6% 2.3% 1.7% 1.3% 1.1% 0.5% 0.3%
---[Information] [23.05.2013 15:06:00] x264 [info]: ref B L1: 93.9% 6.1%
---[Information] [23.05.2013 15:06:00] x264 [info]: kb/s:2412.74
---[Information] [23.05.2013 15:06:00] encoded 163796 frames, 11.72 fps, 2412.74 kb/s

Скриншот c названием фильма

Скриншоты

Сравнение с исходником

http://screenshotcomparison.com/comparison/24967
Показать сообщения:    

Текущее время: Сегодня 06:54

Часовой пояс: GMT



Вы не можете начинать темы
Вы не можете отвечать на сообщения
Вы не можете редактировать свои сообщения
Вы не можете удалять свои сообщения
Вы не можете голосовать в опросах
Вы не можете прикреплять файлы к сообщениям
Вы не можете скачивать файлы