Важное объявление!
У Нас Все раздачи мультитрекерные, при нуле пиров в релизах, можете смело вставать на закачку!
 
Автор Сообщение

HUNTER

Стаж:
4 года 4 месяца
Сообщений:
56765

Репутация: 101

[+] [-]
Вне форума [Профиль] [ЛС]

Комната страха №205 / 205 - Zimmer der Angst
Страна: Германия
Жанр: ужасы, драма
Год выпуска: 2011
Продолжительность: 01:38:28
Перевод: Профессиональный (многоголосый закадровый)
Cубтитры: нет
Оригинальная аудиодорожка: нет
Режиссер: Райнер Мацутани / Rainer Matsutani
В ролях: Дженнифер Ульрих, Андре Хеннике, Инес Бьёрг Давид, Тино Мевес, Ханс-Уве Бауэр, Флориан Яр, Юлия Дитце, Даниэль Рёснер, Марлен Лозе, Люси Элла фон Шиле
Описание: Что произошло в комнате №205? Почему на протяжении года в ней никто не жил? Катрин сильно по этому поводу не заморачивается и поселяется в комнате, а это означает свободу. Свободу от дома, свободу от надоевшего своей опекой отца. Семестр вот-вот начнется, а это значит, что пора повеселиться, завести новых друзей, попасть на вечеринку, переспать с кем-то, и конечно же отправится в свой класс. Но, вскоре начинают происходить загадочные события в ее комнате и она начинает понимать, почему до нее никто не хотел поселяться в комнату №205.
Сэмпл: http://rusfolder.com/43443900
Кинопоиск: http://www.kinopoisk.ru/film/606837/
Тип релиза: HDTV 1080i
Контейнер: TS
Видео: AVC/H.264, 1920x1080 (16:9), 8091 Кбит/сек, 25.000 fps
Аудио: русский, MP2, 2ch, 48,0 КГц, 192 Кбит/сек

MediaInfo

Общее
Идентификатор : 1 (0x1)
Полное имя : C:\Documents and Settings\User\Рабочий стол\Комната страха 205.ts
Формат : MPEG-TS
Размер файла : 6,00 Гбайт
Продолжительность : 1 ч. 38 м.
Режим общего битрейта : Переменный
Общий поток : 8716 Кбит/сек
Максимальный общий битрейт : 35,5 Мбит/сек
Видео
Идентификатор : 4113 (0x1011)
Идентификатор меню : 1 (0x1)
Формат : AVC
Формат/Информация : Advanced Video Codec
Профиль формата : Main@L4.0
Параметр CABAC формата : Да
Параметр ReFrames формата : 3 кадра
Идентификатор кодека : 27
Продолжительность : 1 ч. 38 м.
Вид битрейта : Переменный
Битрейт : 8091 Кбит/сек
Максимальный битрейт : 40,0 Мбит/сек
Ширина : 1920 пикселей
Высота : 1080 пикселей
Соотношение сторон : 16:9
Частота кадров : 25,000 кадров/сек
Стандарт вещания : Component
Цветовое пространство : YUV
Субдискретизация насыщенности : 4:2:0
Битовая глубина : 8 бит
Тип развёртки : Чересстрочная
Порядок развёртки : Верхнее поле первое
Бит/(Пиксели*Кадры) : 0.156
Размер потока : 5,57 Гбайт (93%)
colour_range : Limited
Аудио
Идентификатор : 4352 (0x1100)
Идентификатор меню : 1 (0x1)
Формат : MPEG Audio
Версия формата : Version 1
Профиль формата : Layer 2
Идентификатор кодека : 4
Продолжительность : 1 ч. 38 м.
Вид битрейта : Постоянный
Битрейт : 192 Кбит/сек
Каналы : 2 канала
Частота : 48,0 КГц
Метод сжатия : С потерями
Размер потока : 135 Мбайт (2%)
Язык : Russian

Скриншот с названием фильма

Скриншоты


_________________
Показать сообщения:    

Текущее время: Сегодня 00:50

Часовой пояс: GMT



Вы не можете начинать темы
Вы не можете отвечать на сообщения
Вы не можете редактировать свои сообщения
Вы не можете удалять свои сообщения
Вы не можете голосовать в опросах
Вы не можете прикреплять файлы к сообщениям
Вы не можете скачивать файлы