Важное объявление!
У Нас Все раздачи мультитрекерные, при нуле пиров в релизах, можете смело вставать на закачку!
 
Автор Сообщение

HUNTER

Стаж:
4 года 4 месяца
Сообщений:
56853

Репутация: 101

[+] [-]
Вне форума [Профиль] [ЛС]

Комната / Room
Страна: Ирландия, Канада
Жанр: драма
Год выпуска: 2015
Продолжительность: 01:57:38
Перевод 1: Одноголосый закадровый | А. Матвеев
Перевод 2: Одноголосый закадровый | А. Матвеев без цензуры
Оригинальная аудиодорожка: Английский
Cубтитры: Russian (Forced), Russian (CENSORED), Russian (UNCENSORED), English, English (SDH).--Режиссер: Леонард Абрахамсон / Lenny Abrahamson--В ролях: Бри Ларсон, Джейкоб Тремблэ, Шон Бриджерс, Джоан Аллен, Том МакКэмус, Уильям Х. Мэйси, Кэс Анвар, Рендал Эдвардс, Аманда Бругел, Джо Пинг...--Описание: Девушку по имени Ма похитили, когда она была еще подростком. С тех пор бедняга живет в крохотной комнатке вместе со своим 5-летним сыном Джеком. Мальчик при этом ничего кроме этой комнаты не видел, он в ней родился и ни разу ее не покидал.--Доп. информация: | IMDB | КиноПоиск | Сэмпл |--Тип релиза: [url=viewtopic.php?t=5175401]BDRip 720p[/url]
Контейнер
: MKV
Видео: x264@L4.1, 1280x534, 23.976 fps, 8520 kbps avg
Аудио 1: DTS, 3/2 (L,C,R,l,r) + LFE ch, 48 kHz, 1536 kbps avg |VO. А.Матвеев|
Аудио 2: DTS, 3/2 (L,C,R,l,r) + LFE ch, 48 kHz, 1536 kbps avg |VO. А.Матвеев (без цензуры)|
Аудио 4: DTS, 3/2 (L,C,R,l,r) + LFE ch, 48 kHz, 1536 kbps avg |Original|
Аудио 5: AC3, 2/0 (L,R) ch, 48 kHz, 192 kbps avg |Commentary|
Формат субтитров: softsub (SRT)

Скриншоты

MediaInfo

General
Unique ID : 250854161655023927806123493174774028718 (0xBCB8C110AA8EEB529AF76402D7CF59AE)
Complete name : Room. 2015 720p.mkv
Format : Matroska
Format version : Version 4 / Version 2
File size : 10.9 GiB
Duration : 1h 57mn
Overall bit rate : 13.2 Mbps
Movie name : Комната / Room (2015)
Encoded date : UTC 2016-03-13 16:06:05
Writing application : mkvmerge v8.1.0 ('Psychedelic Postcard') 64bit
Writing library : libebml v1.3.1 + libmatroska v1.4.2
Cover : Yes
Attachments : cover.jpg
Video
ID : 1
Format : AVC
Format/Info : Advanced Video Codec
Format profile : High@L4.1
Format settings, CABAC : Yes
Format settings, ReFrames : 12 frames
Codec ID : V_MPEG4/ISO/AVC
Duration : 1h 57mn
Bit rate : 8 520 Kbps
Width : 1 280 pixels
Height : 534 pixels
Display aspect ratio : 2.40:1
Frame rate mode : Constant
Frame rate : 23.976 (24000/1001) fps
Color space : YUV
Chroma subsampling : 4:2:0
Bit depth : 8 bits
Scan type : Progressive
Bits/(Pixel*Frame) : 0.520
Stream size : 7.00 GiB (64%)
Title : Room (2015)
Writing library : x264 core 148 r2665 a01e339
Encoding settings : cabac=1 / ref=12 / deblock=1:-3:-3 / analyse=0x3:0x133 / me=umh / subme=11 / psy=1 / psy_rd=1.00:0.00 / mixed_ref=1 / me_range=32 / chroma_me=1 / trellis=2 / 8x8dct=1 / cqm=0 / deadzone=21,11 / fast_pskip=0 / chroma_qp_offset=-2 / threads=6 / lookahead_threads=1 / sliced_threads=0 / nr=0 / decimate=0 / interlaced=0 / bluray_compat=0 / constrained_intra=0 / bframes=13 / b_pyramid=2 / b_adapt=2 / b_bias=0 / direct=3 / weightb=1 / open_gop=0 / weightp=2 / keyint=250 / keyint_min=24 / scenecut=40 / intra_refresh=0 / rc_lookahead=60 / rc=crf / mbtree=0 / crf=15.1 / qcomp=0.70 / qpmin=0 / qpmax=69 / qpstep=4 / vbv_maxrate=38000 / vbv_bufsize=30000 / crf_max=0.0 / nal_hrd=none / filler=0 / ip_ratio=1.40 / pb_ratio=1.23 / aq=2:0.75
Language : English
Default : Yes
Forced : No
Audio #1
ID : 2
Format : DTS
Format/Info : Digital Theater Systems
Mode : 16
Format settings, Endianness : Big
Codec ID : A_DTS
Duration : 1h 57mn
Bit rate mode : Constant
Bit rate : 1 509 Kbps
Channel(s) : 6 channels
Channel positions : Front: L C R, Side: L R, LFE
Sampling rate : 48.0 KHz
Frame rate : 93.750 fps (512 spf)
Bit depth : 24 bits
Compression mode : Lossy
Stream size : 1.24 GiB (11%)
Title : Одноголосый закадровый, А.Матвеев
Language : Russian
Default : Yes
Forced : No
Audio #2
ID : 3
Format : DTS
Format/Info : Digital Theater Systems
Mode : 16
Format settings, Endianness : Big
Codec ID : A_DTS
Duration : 1h 57mn
Bit rate mode : Constant
Bit rate : 1 509 Kbps
Channel(s) : 6 channels
Channel positions : Front: L C R, Side: L R, LFE
Sampling rate : 48.0 KHz
Frame rate : 93.750 fps (512 spf)
Bit depth : 24 bits
Compression mode : Lossy
Stream size : 1.24 GiB (11%)
Title : Одноголосый закадровый, А.Матвеев (без цензуры)
Language : Russian
Default : No
Forced : No
Audio #3
ID : 4
Format : DTS
Format/Info : Digital Theater Systems
Mode : 16
Format settings, Endianness : Big
Codec ID : A_DTS
Duration : 1h 57mn
Bit rate mode : Constant
Bit rate : 1 509 Kbps
Channel(s) : 6 channels
Channel positions : Front: L C R, Side: L R, LFE
Sampling rate : 48.0 KHz
Frame rate : 93.750 fps (512 spf)
Bit depth : 24 bits
Compression mode : Lossy
Stream size : 1.24 GiB (11%)
Title : Original
Language : English
Default : No
Forced : No
Audio #4
ID : 5
Format : AC-3
Format/Info : Audio Coding 3
Mode extension : CM (complete main)
Format settings, Endianness : Big
Codec ID : A_AC3
Duration : 1h 57mn
Bit rate mode : Constant
Bit rate : 192 Kbps
Channel(s) : 2 channels
Channel positions : Front: L R
Sampling rate : 48.0 KHz
Frame rate : 31.250 fps (1536 spf)
Compression mode : Lossy
Stream size : 162 MiB (1%)
Title : Commentary with Director Lenny Abrahamson and Filmmakers
Language : English
Default : No
Forced : No
Text #1
ID : 6
Format : UTF-8
Codec ID : S_TEXT/UTF8
Codec ID/Info : UTF-8 Plain Text
Duration : 39s 190ms
Bit rate : 111 bps
Count of elements : 10
Stream size : 548 Bytes (0%)
Title : Forced
Language : Russian
Default : Yes
Forced : No
Text #2
ID : 7
Format : UTF-8
Codec ID : S_TEXT/UTF8
Codec ID/Info : UTF-8 Plain Text
Duration : 1h 50mn
Bit rate : 69 bps
Count of elements : 1241
Stream size : 55.9 KiB (0%)
Title : Censored
Language : Russian
Default : No
Forced : No
Text #3
ID : 8
Format : UTF-8
Codec ID : S_TEXT/UTF8
Codec ID/Info : UTF-8 Plain Text
Duration : 1h 50mn
Bit rate : 69 bps
Count of elements : 1241
Stream size : 55.9 KiB (0%)
Title : Uncensored
Language : Russian
Default : No
Forced : No
Text #4
ID : 9
Format : UTF-8
Codec ID : S_TEXT/UTF8
Codec ID/Info : UTF-8 Plain Text
Duration : 1h 50mn
Bit rate : 49 bps
Count of elements : 1653
Stream size : 39.8 KiB (0%)
Language : English
Default : No
Forced : No
Text #5
ID : 10
Format : UTF-8
Codec ID : S_TEXT/UTF8
Codec ID/Info : UTF-8 Plain Text
Duration : 1h 51mn
Bit rate : 52 bps
Count of elements : 1758
Stream size : 42.8 KiB (0%)
Title : SDH
Language : English
Default : No
Forced : No
Text #6
ID : 11
Format : UTF-8
Codec ID : S_TEXT/UTF8
Codec ID/Info : UTF-8 Plain Text
Duration : 1h 51mn
Bit rate : 70 bps
Count of elements : 1066
Stream size : 57.5 KiB (0%)
Language : Bulgarian
Default : No
Forced : No
Menu
00:00:00.000 : en:Chapter 01
00:07:07.427 : en:Chapter 02
00:12:23.034 : en:Chapter 03
00:24:29.760 : en:Chapter 04
00:31:11.787 : en:Chapter 05
00:37:16.860 : en:Chapter 06
00:47:27.762 : en:Chapter 07
00:52:27.019 : en:Chapter 08
00:59:46.041 : en:Chapter 09
01:09:29.582 : en:Chapter 10
01:16:51.524 : en:Chapter 11
01:23:52.861 : en:Chapter 12
01:31:30.944 : en:Chapter 13
01:37:03.151 : en:Chapter 14
01:43:28.494 : en:Chapter 15
01:48:23.956 : en:Chapter 16

_________________
Показать сообщения:    

Текущее время: Сегодня 11:45

Часовой пояс: GMT



Вы не можете начинать темы
Вы не можете отвечать на сообщения
Вы не можете редактировать свои сообщения
Вы не можете удалять свои сообщения
Вы не можете голосовать в опросах
Вы не можете прикреплять файлы к сообщениям
Вы не можете скачивать файлы
Наши партнеры: интернет магазин Ивановского трикотажа textilla.ru