Важное объявление!
У Нас Все раздачи мультитрекерные, при нуле пиров в релизах, можете смело вставать на закачку!
 
Автор Сообщение

HUNTER

Стаж:
4 года 4 месяца
Сообщений:
56848

Репутация: 101

[+] [-]
Вне форума [Профиль] [ЛС]

Колобок---
Режиссёр Владлен БарбэГод выпуска: 2006
Страна: Россия, студия "Классика"
Жанр: мультфильм для взрослых
Продолжительность: 00:19:28
Перевод: Оригинал
Роли озвучивали: Федор Добронравов, Виктор Добронравов, Эдуард Радзюкевич--Описание: Грустная история о колобке. По мотивам русской народной сказки. Посвящается родителям... Фильм о том, что ведь все должно было сложиться как-то по-другому, как-то повозвышеннее что ли - а не просто так чтобы: иду себе, и иду… ведь и друзья были, и враги были, и сны дурацкие по ночам не мучили, жил себе и думал, что в твоей жизни есть большой смысл… а, ладно.-- --Качество: DVDRip
Формат: AVI
Видео кодек: XviD
Аудио кодек: AC3
Видео: XviD MPEG-4, 704x336 (2.095:1), 25 fps, 1804 Кбит/с, 0.30 bit/pixel
Аудио: Русский (48 kHz, AC3 Dolby Digital, 2/0 (L,R) ch, ~192 kbps)-- --

Подробные технические данные

Код: copyText_writeLink('this.parentNode.parentNode.nextSibling.nextSibling'); General
Format : AVI
Format/Info : Audio Video Interleave
File size : 280 MiB
Duration : 19mn 28s
Overall bit rate : 2 007 Kbps
Movie name : Колобок(2006)
Writing application : VirtualDubModRus 1.5.10.2 (build 2542/release) VirtualDubMod build 2542/release
Original source form/Name : мультфильм
Copyright : Itar-Tass collection
Video
ID : 0
Format : MPEG-4 Visual
Format profile : Advanced Simple@L5
Format settings, BVOP : 1
Format settings, QPel : No
Format settings, GMC : No warppoints
Format settings, Matrix : Default (MPEG)
Muxing mode : Packed bitstream
Codec ID : XVID
Codec ID/Hint : XviD
Duration : 19mn 28s
Bit rate : 1 805 Kbps
Width : 704 pixels
Height : 336 pixels
Display aspect ratio : 2.095
Frame rate : 25.000 fps
Color space : YUV
Chroma subsampling : 4:2:0
Bit depth : 8 bits
Scan type : Progressive
Compression mode : Lossy
Bits/(Pixel*Frame) : 0.305
Stream size : 251 MiB (90%)
Writing library : XviD 1.2.0.dev47 (UTC 2006-11-01)
Audio
ID : 1
Format : AC-3
Format/Info : Audio Coding 3
Mode extension : CM (complete main)
Codec ID : 2000
Duration : 19mn 28s
Bit rate mode : Constant
Bit rate : 192 Kbps
Channel(s) : 2 channels
Channel positions : Front: L R
Sampling rate : 48.0 KHz
Bit depth : 16 bits
Compression mode : Lossy
Stream size : 26.8 MiB (10%)
Alignment : Split accross interleaves
Interleave, duration : 40 ms (1.00 video frame)
Interleave, preload duration : 500 ms
Language : Не / ре

Награды

Приз "Золотая панда" Международного Сычуаньского телевизионного фестиваля г.Ченду, Китай
Гран-При Международного фестиваля "Арт Амфора", г. Несебр, Болгария
Гран-При фестиваля "Золотой Бубен", г. Ханты-Мансийск
Гран-при фестиваля в Уфе, Башкортостан
Приз IX Евразийского Телефорума, г. Москва
Приз жюри фестиваля "Окно в Европу" г. Выборг
--

Пожалуйста, оставайтесь на раздаче как можно дольше--

_________________
Показать сообщения:    

Текущее время: Сегодня 01:02

Часовой пояс: GMT



Вы не можете начинать темы
Вы не можете отвечать на сообщения
Вы не можете редактировать свои сообщения
Вы не можете удалять свои сообщения
Вы не можете голосовать в опросах
Вы не можете прикреплять файлы к сообщениям
Вы не можете скачивать файлы
Наши партнеры: интернет магазин Ивановского трикотажа textilla.ru