Важное объявление!
У Нас Все раздачи мультитрекерные, при нуле пиров в релизах, можете смело вставать на закачку!
 
Автор Сообщение

HUNTER

Стаж:
4 года 4 месяца
Сообщений:
56798

Репутация: 101

[+] [-]
Вне форума [Профиль] [ЛС]

Колесница : Chariot«You have been chosen»
Страна: США
Год выпуска: 2013
Жанр: триллер, драма
Продолжительность: 01:33:34
Перевод: Одноголосый закадровый [Вадим Белов]
русские субтитры: нет-Режиссёр: Брэд Осборн : Brad Osborne
В главных ролях: Энтони Монтгомери , Йен Синклер, Брина Паленсия , Мишель Шерилл , Лесли Хиппенстил, Джо Неммерс, Дэвид ДеЛао, Ларри Джек Дотсон, Д. Тейлор , Фредерик Досс , ЛиЭнн Локен, Саймон Мортон , Эрик Вэйл, Эверетт Скотт Ортис-Описание: Семеро незнакомых людей приходят в себя на борту летящего авиалайнера. Они не знают как и почему оказались на нем. Они не связаны друг с другом ни местом жительства ни работой ни чем либо еще. Все они занимались своими обычными делами, внезапно отключились и очнулись уже в самолете. В кармане одного из кресел они находят айфон и им удается посмотреть выпуск новостей который вызвал у них настоящий шок.- -Качество: WEB-DL 720p
Формат: MKV
Видео кодек: AVC
Аудио кодек: АС3
Видео: 1280x538, 23.976 fps, ~4 075 kbps avg, 0.247 bit/pixel
Аудио #1: [RUS] 48 kHz, AC3 Dolby Digital, 3/2 (L,C,R,l,r) + LFE ch, ~384 kbps
Аудио #2: [ENG] 48 kHz, AC3 Dolby Digital, 3/2 (L,C,R,l,r) + LFE ch, ~384 kbps
субтитры: английские
навигация по главам: 10 глав

скриншоты


MediaInfo

Общее
Уникальный идентификатор : 221022924367368345260490205901781926665 (0xA64777830E7D412EA7F197DDB1B30309)
Полное имя : D:\Фильмы\Колесница\Chariot.2013.WEB-DL 720p.mkv
Формат : Matroska
Версия формата : Version 4 / Version 2
Размер файла : 3,23 Гбайт
Продолжительность : 1 ч. 33 м.
Общий поток : 4941 Кбит/сек
Дата кодирования : UTC 2014-02-12 15:22:07
Программа кодирования : mkvmerge v6.7.0 ('Back to the Ground') 32bit built on Jan 8 2014 15:03:17
Библиотека кодирования : libebml v1.3.0 + libmatroska v1.4.1
Видео
Идентификатор : 1
Формат : AVC
Формат/Информация : Advanced Video Codec
Профиль формата : Main@L3.1
Параметр CABAC формата : Нет
Параметр ReFrames формата : 2 кадра
Идентификатор кодека : V_MPEG4/ISO/AVC
Продолжительность : 1 ч. 33 м.
Битрейт : 4075 Кбит/сек
Ширина : 1280 пикселей
Высота : 538 пикселей
Соотношение сторон : 2,40:1
Режим частоты кадров : Постоянный
Частота кадров : 23,976 кадра/сек
Цветовое пространство : YUV
Субдискретизация насыщенности : 4:2:0
Битовая глубина : 8 бит
Тип развёртки : Прогрессивная
Бит/(Пиксели*Кадры) : 0.247
Размер потока : 2,66 Гбайт (82%)
Язык : English
Default : Да
Forced : Нет
Основные цвета : BT.709
Характеристики трансфера : BT.709
Коэффициенты матрицы : BT.709
Аудио #1
Идентификатор : 2
Формат : AC-3
Формат/Информация : Audio Coding 3
Расширение режима : CM (complete main)
Параметр Endianness формата : Big
Идентификатор кодека : A_AC3
Продолжительность : 1 ч. 33 м.
Вид битрейта : Постоянный
Битрейт : 384 Кбит/сек
Каналы : 6 каналов
Расположение каналов : Front: L C R, Side: L R, LFE
Частота : 48,0 КГц
Битовая глубина : 16 бит
Метод сжатия : С потерями
Размер потока : 257 Мбайт (8%)
Заголовок : AVO [Вадим Белов]
Язык : Russian
Default : Да
Forced : Нет
Аудио #2
Идентификатор : 3
Формат : AC-3
Формат/Информация : Audio Coding 3
Расширение режима : CM (complete main)
Параметр Endianness формата : Big
Идентификатор кодека : A_AC3
Продолжительность : 1 ч. 33 м.
Вид битрейта : Постоянный
Битрейт : 384 Кбит/сек
Каналы : 6 каналов
Расположение каналов : Front: L C R, Side: L R, LFE
Частота : 48,0 КГц
Битовая глубина : 16 бит
Метод сжатия : С потерями
Размер потока : 257 Мбайт (8%)
Заголовок : ENG
Язык : English
Default : Нет
Forced : Нет
Текст
Идентификатор : 4
Формат : UTF-8
Идентификатор кодека : S_TEXT/UTF8
Идентификатор кодека/Информация : UTF-8 Plain Text
Заголовок : Eng Sub
Язык : English
Default : Нет
Forced : Нет
Меню
00:00:00.000 : en:Chapter 01
00:09:57.000 : en:Chapter 02
00:19:27.000 : en:Chapter 03
00:28:19.000 : en:Chapter 04
00:38:52.000 : en:Chapter 05
00:50:04.000 : en:Chapter 06
01:01:16.000 : en:Chapter 07
01:10:14.000 : en:Chapter 08
01:21:02.000 : en:Chapter 09
01:30:46.000 : en:Chapter 10

_________________
Показать сообщения:    

Текущее время: Сегодня 22:03

Часовой пояс: GMT



Вы не можете начинать темы
Вы не можете отвечать на сообщения
Вы не можете редактировать свои сообщения
Вы не можете удалять свои сообщения
Вы не можете голосовать в опросах
Вы не можете прикреплять файлы к сообщениям
Вы не можете скачивать файлы