Важное объявление!
У Нас Все раздачи мультитрекерные, при нуле пиров в релизах, можете смело вставать на закачку!
 
Автор Сообщение

HUNTER

Стаж:
4 года 4 месяца
Сообщений:
56720

Репутация: 101

[+] [-]
Вне форума [Профиль] [ЛС]

-Колдовская доска / Колдовская игра / Witchboard-Страна: США, Великобритания
Жанр: ужасы, мистика
Год выпуска: 1986
Продолжительность: 01:38:10-Перевод: Профессиональный (двухголосый закадровый) НТВ+
Перевод 2: Авторский (одноголосый закадровый) Вартан Дохалов
Cубтитры: английские
Оригинальная аудиодорожка: английский-Режиссер: Кевин Тенни / Kevin Tenney
В ролях: Тодд Аллен, Тауни Китаен, Стивен Николс, Кэтлин Уилхойт, Бёрк Бирнс, Джеймс В. Куинн, Роуз Мари, Джуди Татум, Глория Хэйес, Дж.П. Любсен-Описание: Завершая неудачную вечеринку, компания беззаботных молодых людей решает развлечься спиритизмом. Вниманию любопытных дилетантов предстает таинственная Колдовская доска. Не принимая экзотическую настольную игру всерьёз, сборище пытается вызвать дух умершего несколько лет назад мальчика Дэвида. Зловещий спиритический знак возвещает им начало адской вакханалии. Очень скоро каждого из них неизбежно ожидает встреча со злым духом безжалостного убийцы Мэлфейтора.-Сэмпл: https://yadi.sk/i/Du64rTq2pZZpf-Тип релиза: BDRemux 1080p
Контейнер: MKV
Видео: MPEG-4 AVC Video 29354 kbps 1080p / 23,976 fps / 16:9 / High Profile 4.1
Аудио: Dolby Digital Audio Russian 192 kbps 2.0 / 48 kHz | НТВ+
Аудио 2: Dolby Digital Audio Russian 192 kbps 2.0 / 48 kHz | Вартан Дохалов
Аудио 3: DTS-HD Master Audio English 2.0 / 48 kHz / 1958 kbps / 24-bit (DTS Core: 2.0 / 48 kHz / 1509 kbps / 24-bit)
Формат субтитров: softsub (SRT)

MI

GeneralUnique ID : 187570391465184078847848797563706285754 (0x8D1CBE4CDCB62916936C76BC9F8A1EBA)Complete name : P:\Ужасы\Колдовская доска (1986. Witchboard).mkvFormat : MatroskaFormat version : Version 2File size : 21.7 GiBDuration : 1h 38mnOverall bit rate mode : VariableOverall bit rate : 31.7 MbpsMovie name : Release for RuTrackerEncoded date : UTC 2016-02-26 08:50:51Writing application : mkvmerge v4.9.1 ('Ich will') сборка от Jul 11 2011 23:53:15Writing library : libebml v1.2.1 + libmatroska v1.1.1Attachment : Yes
VideoID : 1Format : AVCFormat/Info : Advanced Video CodecFormat profile : High@L4.1Format settings, CABAC : YesFormat settings, ReFrames : 3 framesCodec ID : V_MPEG4/ISO/AVCDuration : 1h 38mnBit rate mode : VariableMaximum bit rate : 34.5 MbpsWidth : 1 920 pixelsHeight : 1 080 pixelsDisplay aspect ratio : 16:9Frame rate mode : ConstantFrame rate : 23.976 fpsStandard : NTSCColor space : YUVChroma subsampling : 4:2:0Bit depth : 8 bitsScan type : ProgressiveLanguage : EnglishDefault : YesForced : NoColor primaries : BT.709Transfer characteristics : BT.709Matrix coefficients : BT.709
Audio #1ID : 2Format : AC-3Format/Info : Audio Coding 3Mode extension : CM (complete main)Format settings, Endianness : BigCodec ID : A_AC3Duration : 1h 38mnBit rate mode : ConstantBit rate : 192 KbpsChannel(s) : 2 channelsChannel positions : Front: L RSampling rate : 48.0 KHzBit depth : 16 bitsCompression mode : LossyStream size : 135 MiB (1%)Title : DVO [НТВ+]Language : RussianDefault : YesForced : No
Audio #2ID : 3Format : AC-3Format/Info : Audio Coding 3Mode extension : CM (complete main)Format settings, Endianness : BigCodec ID : A_AC3Duration : 1h 38mnBit rate mode : ConstantBit rate : 192 KbpsChannel(s) : 2 channelsChannel positions : Front: L RSampling rate : 48.0 KHzBit depth : 16 bitsCompression mode : LossyStream size : 135 MiB (1%)Title : Вартан ДохаловLanguage : RussianDefault : NoForced : No
Audio #3ID : 4Format : DTSFormat/Info : Digital Theater SystemsFormat profile : MA / CoreMode : 16Format settings, Endianness : BigCodec ID : A_DTSDuration : 1h 38mnBit rate mode : VariableBit rate : Unknown / 1 509 KbpsChannel(s) : 2 channelsChannel positions : Front: L RSampling rate : 48.0 KHzBit depth : 24 bitsCompression mode : Lossless / LossyLanguage : EnglishDefault : NoForced : No
Text #1ID : 5Format : UTF-8Codec ID : S_TEXT/UTF8Codec ID/Info : UTF-8 Plain TextLanguage : EnglishDefault : NoForced : No
Text #2ID : 6Format : PGSMuxing mode : zlibCodec ID : S_HDMV/PGSCodec ID/Info : The same subtitle format used on BDs/HD-DVDsLanguage : EnglishDefault : NoForced : No
Menu00:00:00.000 : en:00:00:00.00000:05:58.358 : en:00:05:58.35800:16:28.988 : en:00:16:28.98800:26:56.240 : en:00:26:56.24000:35:07.731 : en:00:35:07.73100:42:41.559 : en:00:42:41.55900:51:04.687 : en:00:51:04.68700:59:18.555 : en:00:59:18.55501:05:33.555 : en:01:05:33.55501:12:17.333 : en:01:12:17.33301:22:55.971 : en:01:22:55.97101:27:52.893 : en:01:27:52.893

Скриншоты



Зеркало


Цитата:
Цитата:

  • Сохранены оригинальные чаптеры как на Blu-ray.
  • Русский звук [url=viewtopic.php?t=5105713]отсюда[/url].

_________________
Показать сообщения:    

Текущее время: Сегодня 06:54

Часовой пояс: GMT



Вы не можете начинать темы
Вы не можете отвечать на сообщения
Вы не можете редактировать свои сообщения
Вы не можете удалять свои сообщения
Вы не можете голосовать в опросах
Вы не можете прикреплять файлы к сообщениям
Вы не можете скачивать файлы