Важное объявление!
У Нас Все раздачи мультитрекерные, при нуле пиров в релизах, можете смело вставать на закачку!
 
Автор Сообщение

HUNTER

Стаж:
4 года 4 месяца
Сообщений:
56719

Репутация: 101

[+] [-]
Вне форума [Профиль] [ЛС]

Кокоша – маленький дракон / Der kleine Drache Kokosnuss
Страна: Германия
Жанр: Мультфильм, детский
Продолжительность: 01:34:26
Год выпуска: 2014
Перевод: Профессиональный (дублированный) [iTunes]
Русские субтитры: нет
Режиссёр: Хьюберт Вейланд / Hubert Weiland, Нина Велс / Nina Wels
Роли озвучивали: Каролин Кебекус, Клаудия Михельсен, Дастин Земмельрогге, Макс фон Гробен
Описание: Дракончик Кокоша и его друг, дракончик Оскар, жили на Острове Драконов. Были они не такими, как все. Кокоша очень хотел стать летающим драконом, но летать у него не получалось. А Оскар, хищник по рождению, был убежденным вегетарианцем. Однажды вместе со своей подружкой, дикобразихой Матильдой, они решили отправиться в рискованное путешествие…
Семпл: http://multi-up.com/1072062
Качество: HDRip
Формат: AVI
Видео: XviD, 720x400, 24.000 fps, 1975 Kbps
Аудио 1: AC3, 48 KHz, (2 ch), 192 kb/s [Русский]
Аудио 2: AC3, 48 KHz, (2 ch), 192 kb/s [Английский]
Субтитры: отсутствуют

Подробные технические данные

General Complete name : K0k0sha.m4l3njkij.dr4k0n.2014.D.HDRip.1.46GB Format : AVI Format/Info : Audio Video Interleave File size : 1.37 GiB Duration : 1h 22mn Overall bit rate : 2 373 Kbps Writing application : VirtualDubMod 1.5.10.2 (build 2540/release) Writing library : VirtualDubMod build 2540/release Video #0 ID : 0 Format : MPEG-4 Visual Format profile : Advanced Simple@L5 Format settings, BVOP : 2 Format settings, QPel : No Format settings, GMC : No warppoints Format settings, Matrix : Default (MPEG) Codec ID : XVID Codec ID/Hint : XviD Duration : 1h 22mn Bit rate : 1 975 Kbps Width : 720 pixels Height : 400 pixels Display aspect ratio : 16:9 Frame rate : 24.000 fps Color space : YUV Chroma subsampling : 4:2:0 Bit depth : 8 bits Scan type : Progressive Compression mode : Lossy Bits/(Pixel*Frame) : 0.286 Stream size : 1.14 GiB (83%) Writing library : XviD 1.2.1 (UTC 2008-12-04) Audio #1 ID : 1 Format : AC-3 Format/Info : Audio Coding 3 Mode extension : CM (complete main) Format settings, Endianness : Big Codec ID : 2000 Duration : 1h 22mn Bit rate mode : Constant Bit rate : 192 Kbps Channel(s) : 2 channels Channel positions : Front: L R Sampling rate : 48.0 KHz Bit depth : 16 bits Compression mode : Lossy Stream size : 113 MiB (8%) Alignment : Split accross interleaves Interleave, duration : 42 ms (1.00 video frame) Interleave, preload duration : 500 ms Audio #2 ID : 2 Format : AC-3 Format/Info : Audio Coding 3 Mode extension : CM (complete main) Format settings, Endianness : Big Codec ID : 2000 Duration : 1h 22mn Bit rate mode : Constant Bit rate : 192 Kbps Channel(s) : 2 channels Channel positions : Front: L R Sampling rate : 48.0 KHz Bit depth : 16 bits Compression mode : Lossy Stream size : 113 MiB (8%) Alignment : Split accross interleaves Interleave, duration : 42 ms (1.00 video frame) Interleave, preload duration : 500 ms

Скриншоты


_________________
Показать сообщения:    

Текущее время: Сегодня 19:20

Часовой пояс: GMT



Вы не можете начинать темы
Вы не можете отвечать на сообщения
Вы не можете редактировать свои сообщения
Вы не можете удалять свои сообщения
Вы не можете голосовать в опросах
Вы не можете прикреплять файлы к сообщениям
Вы не можете скачивать файлы