Важное объявление!
У Нас Все раздачи мультитрекерные, при нуле пиров в релизах, можете смело вставать на закачку!
 
Автор Сообщение

HUNTER

Стаж:
4 года 4 месяца
Сообщений:
56755

Репутация: 101

[+] [-]
Вне форума [Профиль] [ЛС]

Коко до Шанель / Coco avant Chanel
Страна: Франция, Бельгия
Жанр: драма, биография, история
Год выпуска: 2009
Продолжительность: 01:45:00
Перевод: Профессиональный (дублированный)
Cубтитры: нет
Оригинальная аудиодорожка: нет
Режиссер: Анн Фонтен/Anne Fontaine
В ролях: Одри Тоту,Бенуа Пульворд,Алессандро Нивола,Мари Жиллен,Эммануэль Дево,Режис Руайе,Этьен Бартоломью,Ян Дюффа,Фабьен Беар,Рош Лейбовичи
Описание: «Коко до Шанель» — экранизированная биография, рассказывающая о легендарной личности — дизайнере Коко Шанель. Сюжет сфокусирован на времени, когда она еще не была знаменитой законодательницей мод, надевшей на женщину мужской костюм и маленькое черное платье, и звалась Габриэллой Шанель.
Сэмпл: http://multi-up.com/997727
Качество видео: HDTV 1080i
Формат видео: MP4
Видео: AVC, 1920х1080, 16:9, 5162 Кбит/сек, 25 fps
Аудио: MPEG Audio, 160 Кбит/сек, 48 КГц, 2 канала

MediaInfo

Общее
Идентификатор : 16 (0x10)
Полное имя : Coco avant Chanel_HD.ts
Формат : MPEG-TS
Размер файла : 4,13 Гбайт
Продолжительность : 1 ч. 45 м.
Режим общего битрейта : Переменный
Общий поток : 5600 Кбит/сек
Видео
Идентификатор : 3201 (0xC81)
Идентификатор меню : 1201 (0x4B1)
Формат : AVC
Формат/Информация : Advanced Video Codec
Профиль формата : High@L4.0
Параметр CABAC формата : Да
Параметр ReFrames формата : 3 кадра
Идентификатор кодека : 27
Продолжительность : 1 ч. 45 м.
Битрейт : 5162 Кбит/сек
Ширина : 1920 пикселей
Высота : 1080 пикселей
Соотношение сторон : 16:9
Частота кадров : 25,000 кадров/сек
Стандарт вещания : PAL
Цветовое пространство : YUV
Субдискретизация насыщенности : 4:2:0
Битовая глубина : 8 бит
Тип развёртки : Чересстрочная
Порядок развёртки : Верхнее поле первое
Бит/(Пиксели*Кадры) : 0.100
Размер потока : 3,81 Гбайт (92%)
Основные цвета : BT.601 PAL
Характеристики трансфера : BT.470 System B, BT.470 System G
Коэффициенты матрицы : BT.601
Аудио
Идентификатор : 4201 (0x1069)
Идентификатор меню : 1201 (0x4B1)
Формат : MPEG Audio
Версия формата : Version 1
Профиль формата : Layer 2
Идентификатор кодека : 4
Продолжительность : 1 ч. 45 м.
Вид битрейта : Постоянный
Битрейт : 160 Кбит/сек
Каналы : 2 канала
Частота : 48,0 КГц
Метод сжатия : С потерями
Задержка видео : 22 мс.
Размер потока : 121 Мбайт (3%)
Язык : std
Язык, дополнительно : Clean effects

Скриншот c названием фильма

Скриншоты


_________________
Показать сообщения:    

Текущее время: Сегодня 12:59

Часовой пояс: GMT



Вы не можете начинать темы
Вы не можете отвечать на сообщения
Вы не можете редактировать свои сообщения
Вы не можете удалять свои сообщения
Вы не можете голосовать в опросах
Вы не можете прикреплять файлы к сообщениям
Вы не можете скачивать файлы