Важное объявление!
У Нас Все раздачи мультитрекерные, при нуле пиров в релизах, можете смело вставать на закачку!
 
Автор Сообщение

HUNTER

Стаж:
4 года 4 месяца
Сообщений:
56734

Репутация: 101

[+] [-]
Вне форума [Профиль] [ЛС]

Когда Солнце стоит неподвижно. Кеплер, Галилей и небеса
Wenn die Sonne still steht - Kepler, Galilei und der Himmel-
Дата/Год выпуска: 2009
Страна: Австрия, Великобритания
Жанр: документально-игровой, космос
Продолжительность: 00:59:12
Перевод: Профессиональный (двухголосый закадровый)
Доп. инфо о переводе: ТПО "Ред Медиа"
Русские субтитры: нетРежиссер: Кристиан Райз / Christian Riehs, Вольфганг Пешль / Wolfgang Peschl
Телеканал: 365 дней
Описание: Имена таких учёных как Галилео Галилей и Иоганн Кеплер – известны во всём мире. Будучи друзьями и соперниками, они более четырёх веков тому назад порождали современные теории мироздания. (анонс канала "365 дней")
Доп. информация: В отличие от имеющегося на трекере SATRip в данной раздаче другой перевод DVO (ТПО "Ред Медиа").
Сэмпл: http://multi-up.com/971081
качество: DVB-S
формат: MKV
Видео: MPEG Video 2, 720x576@768x576 (4:3), 25 fps, ~2700 kbps avg, 0.260 bit/pixel
Аудио: 48 kHz, MPEG Audio 2, 2 ch, ~192.00 kbps avg
MediaInfo
ОбщееУникальный идентификатор : 195346326465282938842641826752625729399 (0x92F6557ED500767BAF54B55474C15F77)Полное имя : H:\My Torrents\[apreder]When_the_Sun_stands_still(2009)DVB.mkvФормат : MatroskaВерсия формата : Version 2Размер файла : 1,22 ГбайтПродолжительность : 59 м.Режим общего битрейта : ПеременныйОбщий поток : 2951 Кбит/секДата кодирования : UTC 2014-05-02 13:46:57Программа кодирования : mkvmerge v6.9.1 ('Blue Panther') 32bit built on Apr 18 2014 18:15:44Библиотека кодирования : libebml v1.3.0 + libmatroska v1.4.1
ВидеоИдентификатор : 1Формат : MPEG VideoВерсия формата : Version 2Профиль формата : Main@MainПараметр BVOP формата : НетПараметр матрицы формата : ВыборочнаяИдентификатор кодека : V_MPEG2Идентификатор кодека/Информация : MPEG 1 or 2 VideoПродолжительность : 59 м.Вид битрейта : ПеременныйБитрейт : 2700 Кбит/секМаксимальный битрейт : 5564 Кбит/секШирина : 720 пикселейВысота : 576 пикселейСоотношение сторон : 4:3Режим частоты кадров : ПостоянныйЧастота кадров : 25,000 кадров/секСтандарт вещания : PALЦветовое пространство : YUVСубдискретизация насыщенности : 4:2:0Битовая глубина : 8 битТип развёртки : ЧересстрочнаяПорядок развёртки : Верхнее поле первоеМетод сжатия : С потерямиБит/(Пиксели*Кадры) : 0.260Временной код первого кадра : 00:00:00:00Оригинал временного кода : Group of pictures headerРазмер потока : 1,12 Гбайт (92%)Default : ДаForced : Нет
АудиоИдентификатор : 2Формат : MPEG AudioВерсия формата : Version 1Профиль формата : Layer 2Идентификатор кодека : A_MPEG/L2Идентификатор кодека/Подсказка : MP2Продолжительность : 59 м.Вид битрейта : ПостоянныйБитрейт : 192 Кбит/секКаналы : 2 каналаЧастота : 48,0 КГцМетод сжатия : С потерямиРазмер потока : 81,3 Мбайт (7%)Default : ДаForced : Нет
Скриншоты


Резервные скриншоты-1'317/1'298√[-4]

_________________
Показать сообщения:    

Текущее время: Сегодня 15:11

Часовой пояс: GMT



Вы не можете начинать темы
Вы не можете отвечать на сообщения
Вы не можете редактировать свои сообщения
Вы не можете удалять свои сообщения
Вы не можете голосовать в опросах
Вы не можете прикреплять файлы к сообщениям
Вы не можете скачивать файлы