Важное объявление!
У Нас Все раздачи мультитрекерные, при нуле пиров в релизах, можете смело вставать на закачку!
 
Автор Сообщение

HUNTER

Стаж:
4 года 4 месяца
Сообщений:
56722

Репутация: 101

[+] [-]
Вне форума [Профиль] [ЛС]

Когда поют ангелы / Angels Sing
«Christmas comes but once a year, but the memories last a lifetime»
-
Выпущено: США
Жанр: драма, комедия, семейный
Год выпуска: 2013
Продолжительность: 01:27:04
Перевод: Любительский (многоголосый закадровый) [Victory Films & den904]
Cубтитры: английские (Full, SDH, SDH-Colored - by Ivandrofly @ Subscene)
Оригинальная аудиодорожка: английский
-Режиссер: Тим МакКэнлис / Tim McCanlies
В ролях: Гарри Конник мл., Конни Бриттон, Чандлер Кентербери, Фионнула Флэнаган, Лайл Лаветт, Уилли Нельсон, Крис Кристофферсон, Дана Уиллер-Николсон, Элуиз Деджориа, Дилан Саммеролл, Бреннан Баркер, Sara Hickman
-Описание: Когда Майкл Уолкер был ребенком, он очень любил Рождество и хотел, чтобы оно было каждый день. Так продолжалось, пока трагический случай не уничтожил его праздничное настроение. Тридцать лет спустя Майкл все так же не в состоянии ощущать радость от праздников, несмотря на поддержку своей жены. Но когда его юный сын сталкивается с трагедией, главному герою придется загладить свою вину перед прошлым.- (1 мин.)-

Кто трудился над озвучкой:

Перевод : Lady-X
Озвучка : Rg Victory Films & Den904
Текст читали :
Андрей Питерский
Камила Юнусова
Анастасия Лаглер
Татьяна Зыбарева
Den904
-Тип релиза: BDRip 720p / Исходник - Angels.Sing.2013.COMPLETE.BluRay-o0o /
Контейнер: MKV
Видео: AVC, 1280x720 (16:9) at 23.976 fps, AVC at 4807 kbps avg, 0.212 bit/pixel, crf
Аудио #1: Russian AC3 Dolby Digital, 3/2 (L,C,R,l,r) + LFE ch, 48 kHz, ~384.00 kbps |MVO, Victory Films & den904|
Аудио #2: English DTS 5.1, 48 kHz, 1509 kbps, 24-bit |Original|
Формат субтитров: softsub (SRT)
Сохранены оригинальные чаптеры как на Blu-Ray.
-Автор рипа:

MediaInfo

Код:
General
Unique ID                                : 210921239811722011450789551032269509203 (0x9EADF402B10042D3813802B6A31F9253)
Complete name                            : I:\Angels.Sing.2013.720p.BluRay.x264.Electr0man.mkv
Format                                   : Matroska
Format version                           : Version 2
File size                                : 4.08 GiB
Duration                                 : 1h 27mn
Overall bit rate                         : 6 701 Kbps
Movie name                               : BDRip 720p by Electr0man
Encoded date                             : UTC 2014-02-23 10:09:23
Writing application                      : mkvmerge v5.5.0 ('Healer') built on Apr  6 2012 21:43:24
Writing library                          : libebml v1.2.3 + libmatroska v1.3.0
Video
ID                                       : 1
Format                                   : AVC
Format/Info                              : Advanced Video Codec
Format profile                           : High@L4.1
Format settings, CABAC                   : Yes
Format settings, ReFrames                : 8 frames
Codec ID                                 : V_MPEG4/ISO/AVC
Duration                                 : 1h 27mn
Bit rate                                 : 4 675 Kbps
Width                                    : 1 280 pixels
Height                                   : 720 pixels
Display aspect ratio                     : 16:9
Frame rate mode                          : Constant
Frame rate                               : 23.976 fps
Color space                              : YUV
Chroma subsampling                       : 4:2:0
Bit depth                                : 8 bits
Scan type                                : Progressive
Bits/(Pixel*Frame)                       : 0.212
Stream size                              : 2.84 GiB (70%)
Title                                    : Когда поют ангелы / Angels Sing (2013)
Writing library                          : x264 core 138 r2358kMod 9e941d1
Encoding settings                        : cabac=1 / ref=8 / deblock=1:-3:-3 / analyse=0x3:0x113 / me=tesa / subme=11 / psy=1 / fade_compensate=0.00 / psy_rd=1.05:0.00 / mixed_ref=1 / me_range=32 / chroma_me=1 / trellis=2 / 8x8dct=1 / cqm=0 / deadzone=21,11 / fast_pskip=0 / chroma_qp_offset=-2 / threads=6 / lookahead_threads=1 / sliced_threads=0 / nr=0 / decimate=1 / interlaced=0 / bluray_compat=0 / constrained_intra=0 / bframes=8 / b_pyramid=2 / b_adapt=2 / b_bias=0 / direct=1 / weightb=1 / open_gop=0 / weightp=2 / keyint=240 / keyint_min=23 / scenecut=40 / intra_refresh=0 / rc_lookahead=60 / rc=crf / mbtree=0 / crf=16.3330 / qcomp=0.60 / qpmin=0 / qpmax=69 / qpstep=4 / vbv_maxrate=62500 / vbv_bufsize=78125 / crf_max=0.0 / nal_hrd=none / ip_ratio=1.30 / pb_ratio=1.20 / aq=3:0.80
Language                                 : English
Default                                  : Yes
Forced                                   : No
Audio #1
ID                                       : 2
Format                                   : AC-3
Format/Info                              : Audio Coding 3
Mode extension                           : CM (complete main)
Format settings, Endianness              : Big
Codec ID                                 : A_AC3
Duration                                 : 1h 27mn
Bit rate mode                            : Constant
Bit rate                                 : 384 Kbps
Channel count                            : 6 channels
Channel positions                        : Front: L C R, Side: L R, LFE
Sampling rate                            : 48.0 KHz
Bit depth                                : 16 bits
Compression mode                         : Lossy
Stream size                              : 239 MiB (6%)
Title                                    : MVO (Victory Films & den904)
Language                                 : Russian
Default                                  : Yes
Forced                                   : No
Audio #2
ID                                       : 3
Format                                   : DTS
Format/Info                              : Digital Theater Systems
Mode                                     : 16
Format settings, Endianness              : Big
Codec ID                                 : A_DTS
Duration                                 : 1h 27mn
Bit rate mode                            : Constant
Bit rate                                 : 1 509 Kbps
Channel count                            : 6 channels
Channel positions                        : Front: L C R, Side: L R, LFE
Sampling rate                            : 48.0 KHz
Bit depth                                : 24 bits
Compression mode                         : Lossy
Stream size                              : 940 MiB (23%)
Title                                    : Original
Language                                 : English
Default                                  : No
Forced                                   : No
Text #1
ID                                       : 4
Format                                   : UTF-8
Codec ID                                 : S_TEXT/UTF8
Codec ID/Info                            : UTF-8 Plain Text
Title                                    : Eng -Ivandrofly @ Subscene
Language                                 : English
Default                                  : No
Forced                                   : No
Text #2
ID                                       : 5
Format                                   : UTF-8
Codec ID                                 : S_TEXT/UTF8
Codec ID/Info                            : UTF-8 Plain Text
Title                                    : SDH -Ivandrofly @ Subscene
Language                                 : English
Default                                  : No
Forced                                   : No
Text #3
ID                                       : 6
Format                                   : UTF-8
Codec ID                                 : S_TEXT/UTF8
Codec ID/Info                            : UTF-8 Plain Text
Title                                    : SDH-Colored -Ivandrofly @ Subscene
Language                                 : English
Default                                  : No
Forced                                   : No
Menu
00:00:00.000                             : en:00:00:00.000
00:02:12.591                             : en:00:02:12.591
00:09:17.891                             : en:00:09:17.891
00:20:29.186                             : en:00:20:29.186
00:28:06.518                             : en:00:28:06.518
00:39:29.617                             : en:00:39:29.617
00:46:50.099                             : en:00:46:50.099
00:55:23.362                             : en:00:55:23.362
01:03:07.826                             : en:01:03:07.826
01:09:43.429                             : en:01:09:43.429
01:15:58.929                             : en:01:15:58.929
01:22:21.228                             : en:01:22:21.228

x264

Код:
x264 [info]: frame I:1137  Avg QP:13.86  size:139209
x264 [info]: frame P:26126 Avg QP:14.67  size: 46191
x264 [info]: frame B:97993 Avg QP:16.32  size: 18094
x264 [info]: consecutive B-frames:  1.9%  1.5%  6.2% 20.7% 17.7% 42.2%  6.0%  1.9%  2.0%

Скриншоты






_________________
Показать сообщения:    

Текущее время: Сегодня 12:03

Часовой пояс: GMT



Вы не можете начинать темы
Вы не можете отвечать на сообщения
Вы не можете редактировать свои сообщения
Вы не можете удалять свои сообщения
Вы не можете голосовать в опросах
Вы не можете прикреплять файлы к сообщениям
Вы не можете скачивать файлы