Важное объявление!
У Нас Все раздачи мультитрекерные, при нуле пиров в релизах, можете смело вставать на закачку!
 
Автор Сообщение

HUNTER

Стаж:
4 года 4 месяца
Сообщений:
56755

Репутация: 101

[+] [-]
Вне форума [Профиль] [ЛС]


Книга жизни | The Book of Life
-
Страна: США (Reel FX Animation Studios, 20th Century Fox)
Жанр: Фэнтези, Мелодрама, Комедия, Приключения, Семейный
Продолжительность: 01:35:24
Год выпуска: 2014
Перевод: Профессиональный (дублированный) iTunes
Перевод 2: Любительский (двухголосый закадровый) (Студия Пиратского Дубляжа)
Русские субтитры: есть
Режиссёр: Хорхе Р. Гутьеррес / Jorge R. Gutierrez
Продюсер: Гильермо дель Торо | Guillermo del Toro, Аарон Бергер, Брэд Букер
Роли озвучивали: Manolo - Диего Луна, Maria - Зои Салдана, Joaquin - Ченнинг Татум, Xibalba - Рон Перлман, Mary Beth - Кристина Эпплгейт, Candle Maker - Айс Кьюб, La Muerte - Кейт дель Кастильо, Carlos Sanchez - Гектор Элизондо, Skeleton Luis - Дэнни Трехо, General Posada / Dali / Chuy - Карлос Аласраки, Skeleton Carmen - Ана де ла Регера, Skeleton Jorge - Пласидо Доминго, Land of the Remembered Captain - Мигель Сандовал, Pancho Rodriguez - Чич Марин, Land of the Remembered Captain's Wife - Гильермо дель Торо-ОписаниеВ мультфильме описывается романтическая история любви на фоне празднования Дня мертвых в Мексике.
Духи Ла Муэрте и Шибальба посещают городок Сан Анхель в День Мёртвых, где они заключают пари после того как встречают пару мальчишек, Маноло и Хоакина, которые хотят завоевать сердце Марии.
-
Книга жизни (The Book of Life) — американский компьютерный анимационный мультфильм производства Reel FX Creative Studios и распространяется компанией "20th Century Fox"

Релиз:

Сэмпл

IMDb: 7.30 (22 213)
Качество: BDRip 720p The.Book.Of.Life.2014.1080p.BluRay.AVC.DTS-HD.MA.7.1-RARBG
Формат: MKV
Видео: AVC 4175 Kbps 1280 x 536 (2.388) at 23.976 fps
Аудио: AC-3 192 Kbps 2 channels, 48.0 KHz Rus Dub iTunes
Аудио 2: AC-3 384 Kbps 6 channels, 48.0 KHz DVO
Аудио 3: AC-3 640 Kbps 6 channels, 48.0 KHz Eng
Аудио 3: AC-3 448 Kbps 6 channels, 48.0 KHz Spa
Субтитры: Rus [Forced, Full], Ukr [Full], Eng [Full, SDH], Spa [Full] SRT

MI | Log

Log
x264 [info]: frame I:1660 Avg QP:15.47 size:143148
x264 [info]: frame P:36525 Avg QP:17.29 size: 42794
x264 [info]: frame B:99070 Avg QP:20.09 size: 12815
x264 [info]: consecutive B-frames: 4.7% 4.8% 13.0% 37.9% 16.6% 16.8% 3.5% 1.0% 0.6% 0.4% 0.6%
x264 [info]: mb I I16..4: 6.7% 61.4% 31.9%
x264 [info]: mb P I16..4: 0.7% 12.3% 2.7% P16..4: 23.8% 27.7% 15.9% 4.7% 0.8% skip:11.4%
x264 [info]: mb B I16..4: 0.1% 1.6% 0.3% B16..8: 26.9% 20.0% 4.9% direct: 5.4% skip:40.8% L0:38.4% L1:41.6% BI:20.0%
x264 [info]: 8x8 transform intra:75.3% inter:48.0%
x264 [info]: direct mvs spatial:99.9% temporal:0.1%
x264 [info]: coded y,uvDC,uvAC intra: 91.5% 91.3% 80.7% inter: 22.4% 21.0% 10.6%
x264 [info]: i16 v,h,dc,p: 18% 17% 10% 55%
x264 [info]: i8 v,h,dc,ddl,ddr,vr,hd,vl,hu: 12% 11% 8% 9% 11% 11% 12% 11% 14%
x264 [info]: i4 v,h,dc,ddl,ddr,vr,hd,vl,hu: 12% 9% 5% 8% 14% 13% 13% 11% 13%
x264 [info]: i8c dc,h,v,p: 42% 25% 16% 17%
x264 [info]: Weighted P-Frames: Y:3.9% UV:2.5%
x264 [info]: ref P L0: 51.3% 12.2% 15.1% 6.2% 4.6% 3.6% 2.9% 1.8% 1.7% 0.4% 0.0%
x264 [info]: ref B L0: 76.5% 10.3% 5.4% 2.9% 2.1% 1.5% 0.9% 0.3%
x264 [info]: ref B L1: 92.6% 7.4%
x264 [info]: kb/s:4290.52
x264 [total]: encoded 137255 frames, 9.40 fps, 4290.52 kb/s, duration 4:03:27.48
Format                                   : MatroskaFormat version                           : Version 4 / Version 2File size                                : 3.97 GiBDuration                                 : 1h 35mnOverall bit rate                         : 5 958 KbpsEncoded date                             : UTC 2015-03-23 21:37:36Writing application                      : mkvmerge v6.7.0 ('Back to the Ground') 32bit built on Jan  8 2014 15:03:17Writing library                          : libebml v1.3.0 + libmatroska v1.4.1
VideoID : 1Format : AVCFormat/Info : Advanced Video CodecFormat profile : High@L4.1Format settings, CABAC : YesFormat settings, ReFrames : 9 framesCodec ID : V_MPEG4/ISO/AVCDuration : 1h 35mnBit rate : 4 175 KbpsWidth : 1 280 pixelsHeight : 536 pixelsDisplay aspect ratio : 2.40:1Frame rate mode : ConstantFrame rate : 23.976 fpsColor space : YUVChroma subsampling : 4:2:0Bit depth : 8 bitsScan type : ProgressiveBits/(Pixel*Frame) : 0.254Stream size : 2.78 GiB (70%)Title : The Book of Life [rutracker.org]Writing library : x264 core 146 r2538kMod 121396cEncoding settings : cabac=1 / ref=9 / deblock=1:-3:-2 / analyse=0x3:0x133 / me=umh / subme=11 / psy=1 / fade_compensate=0.00 / psy_rd=1.00:0.05 / mixed_ref=1 / me_range=32 / chroma_me=1 / trellis=2 / 8x8dct=1 / cqm=0 / deadzone=21,11 / fast_pskip=0 / chroma_qp_offset=-3 / threads=12 / lookahead_threads=3 / sliced_threads=0 / nr=0 / decimate=1 / interlaced=0 / bluray_compat=0 / constrained_intra=0 / fgo=0 / bframes=10 / b_pyramid=2 / b_adapt=2 / b_bias=0 / direct=3 / weightb=1 / open_gop=0 / weightp=2 / keyint=250 / keyint_min=23 / scenecut=40 / intra_refresh=0 / rc_lookahead=80 / rc=crf / mbtree=0 / crf=16.7000 / qcomp=0.60 / qpmin=0 / qpmax=69 / qpstep=4 / vbv_maxrate=50000 / vbv_bufsize=62500 / crf_max=0.0 / nal_hrd=none / filler=0 / ip_ratio=1.40 / pb_ratio=1.30 / aq=3:0.90Language : EnglishDefault : YesForced : No
Audio #1ID : 2Format : AC-3Format/Info : Audio Coding 3Mode extension : CM (complete main)Format settings, Endianness : BigCodec ID : A_AC3Duration : 1h 35mnBit rate mode : ConstantBit rate : 192 KbpsChannel(s) : 2 channelsChannel positions : Front: L RSampling rate : 48.0 KHzBit depth : 16 bitsCompression mode : LossyStream size : 131 MiB (3%)Title : Dub [iTunes]Language : RussianDefault : YesForced : No
Audio #2ID : 3Format : AC-3Format/Info : Audio Coding 3Mode extension : CM (complete main)Format settings, Endianness : BigCodec ID : A_AC3Duration : 1h 35mnBit rate mode : ConstantBit rate : 384 KbpsChannel(s) : 6 channelsChannel positions : Front: L C R, Side: L R, LFESampling rate : 48.0 KHzBit depth : 16 bitsCompression mode : LossyStream size : 262 MiB (6%)Title : DVO [Pirat Studio]Language : RussianDefault : NoForced : No
Audio #3ID : 4Format : AC-3Format/Info : Audio Coding 3Mode extension : CM (complete main)Format settings, Endianness : BigCodec ID : A_AC3Duration : 1h 35mnBit rate mode : ConstantBit rate : 640 KbpsChannel(s) : 6 channelsChannel positions : Front: L C R, Side: L R, LFESampling rate : 48.0 KHzBit depth : 16 bitsCompression mode : LossyStream size : 437 MiB (11%)Title : OriginalLanguage : EnglishDefault : NoForced : No
Audio #4ID : 5Format : AC-3Format/Info : Audio Coding 3Mode extension : CM (complete main)Format settings, Endianness : BigCodec ID : A_AC3Duration : 1h 35mnBit rate mode : ConstantBit rate : 448 KbpsChannel(s) : 6 channelsChannel positions : Front: L C R, Side: L R, LFESampling rate : 48.0 KHzBit depth : 16 bitsCompression mode : LossyStream size : 306 MiB (8%)Title : Spanish [Original]Language : SpanishDefault : NoForced : No
Text #1ID : 6Format : UTF-8Codec ID : S_TEXT/UTF8Codec ID/Info : UTF-8 Plain TextTitle : ForcedLanguage : RussianDefault : YesForced : No
Text #2ID : 7Format : UTF-8Codec ID : S_TEXT/UTF8Codec ID/Info : UTF-8 Plain TextTitle : FullLanguage : RussianDefault : NoForced : No
Text #3ID : 8Format : UTF-8Codec ID : S_TEXT/UTF8Codec ID/Info : UTF-8 Plain TextLanguage : UkrainianDefault : NoForced : No
Text #4ID : 9Format : UTF-8Codec ID : S_TEXT/UTF8Codec ID/Info : UTF-8 Plain TextTitle : FullLanguage : EnglishDefault : NoForced : No
Text #5ID : 10Format : UTF-8Codec ID : S_TEXT/UTF8Codec ID/Info : UTF-8 Plain TextTitle : SDHLanguage : EnglishDefault : NoForced : No
Menu00:00:00.000 : :100:02:58.051 : :200:05:39.629 : :300:08:35.014 : :400:12:08.476 : :500:15:07.697 : :600:19:24.246 : :700:22:20.087 : :800:26:08.148 : :900:28:59.570 : :1000:33:02.145 : :1100:37:25.952 : :1200:41:07.088 : :1300:43:14.632 : :1400:47:02.485 : :1500:50:53.050 : :1600:53:13.231 : :1700:56:30.219 : :1801:00:16.278 : :1901:03:57.791 : :2001:06:48.378 : :2101:09:09.895 : :2201:11:52.015 : :2301:15:53.215 : :2401:18:52.769 : :2501:21:13.409 : :2601:23:33.841 : :2701:27:11.893 : :28

Скриншоты






_________________
Показать сообщения:    

Текущее время: Сегодня 11:36

Часовой пояс: GMT



Вы не можете начинать темы
Вы не можете отвечать на сообщения
Вы не можете редактировать свои сообщения
Вы не можете удалять свои сообщения
Вы не можете голосовать в опросах
Вы не можете прикреплять файлы к сообщениям
Вы не можете скачивать файлы