Важное объявление!
У Нас Все раздачи мультитрекерные, при нуле пиров в релизах, можете смело вставать на закачку!
 
Автор Сообщение

HUNTER

Стаж:
4 года 4 месяца
Сообщений:
56842

Репутация: 101

[+] [-]
Вне форума [Профиль] [ЛС]


Книга жизни
The Book of Life
-
Страна: США
Жанр: Фэнтези, Мелодрама, Комедия
Продолжительность: 01:35:24
Год выпуска: 2014
Перевод: Любительский (двухголосый закадровый) [Студия Пиратского Дубляжа]
Русские субтитры: нет
Режиссёр: Хорхе Р. Гутьеррес / Jorge R. Gutierrez
Продюсер: Гильермо дель Торо / Guillermo del Toro, Аарон Бергер, Брэд Букер
Роли озвучивали: Диего Луна, Зои Салдана, Ченнинг Татум, Рон Перлман, Кристина Эпплгейт, Айс Кьюб, Кейт дель Кастильо, Гектор Элизондо, Дэнни Трехо, Карлос Аласраки-ОписаниеВ мультфильме описывается романтическая история любви на фоне празднования Дня мертвых в Мексике.
Духи Ла Муэрте и Шибальба посещают городок Сан Анхель в День Мёртвых, где они заключают пари после того как встречают пару мальчишек, Маноло и Хоакина, которые хотят завоевать сердце Марии.
-
Книга жизни (The Book of Life) — американский компьютерный анимационный мультфильм 2014 года производства Reel FX Creative Studios и распространяется компанией "20th Century Fox"
Сэмпл

IMDb: 7.30 (19 547)
Качество: BDRip-AVC The.Book.of.Life.2014.P.BDRemux.uniongang.tv
Формат: MKV
Видео: AVC 3603 Kbps 1152 x 482 (2.390) 23.976 fp
Аудио: AC-3 384 Kbps channels, 48.0 KHz DVO Rus
Аудио 2: AC-3 384 Kbps channels, 48.0 KHz Eng
Субтитры: Eng, SRT

MI | Log

Log
x264 [info]: frame I:1499 Avg QP:15.88 size:120551
x264 [info]: frame P:33147 Avg QP:17.66 size: 36509
x264 [info]: frame B:90838 Avg QP:20.63 size: 11156
x264 [info]: consecutive B-frames: 4.6% 3.7% 13.0% 40.7% 16.3% 17.3% 2.0% 1.0% 0.4% 0.3% 0.2% 0.1% 0.2% 0.2% 0.2%
x264 [info]: mb I I16..4: 4.9% 58.7% 36.4%
x264 [info]: mb P I16..4: 0.7% 11.7% 4.0% P16..4: 24.0% 28.6% 16.6% 5.2% 0.9% skip: 8.4%
x264 [info]: mb B I16..4: 0.1% 1.7% 0.7% B16..8: 27.7% 21.0% 5.1% direct: 5.3% skip:38.4% L0:38.1% L1:41.6% BI:20.3%
x264 [info]: 8x8 transform intra:68.3% inter:47.9%
x264 [info]: direct mvs spatial:100.0% temporal:0.0%
x264 [info]: coded y,uvDC,uvAC intra: 88.3% 92.3% 81.3% inter: 22.8% 21.8% 11.4%
x264 [info]: i16 v,h,dc,p: 14% 21% 7% 58%
x264 [info]: i8 v,h,dc,ddl,ddr,vr,hd,vl,hu: 13% 12% 7% 8% 11% 11% 12% 11% 15%
x264 [info]: i4 v,h,dc,ddl,ddr,vr,hd,vl,hu: 27% 9% 4% 7% 11% 11% 11% 9% 11%
x264 [info]: i8c dc,h,v,p: 38% 27% 19% 16%
x264 [info]: Weighted P-Frames: Y:3.9% UV:2.8%
x264 [info]: ref P L0: 51.1% 12.4% 14.1% 5.9% 4.1% 3.3% 2.6% 1.6% 1.3% 1.2% 1.0% 1.1% 0.2% 0.0%
x264 [info]: ref B L0: 77.2% 9.6% 5.0% 2.3% 1.7% 1.3% 1.1% 0.6% 0.6% 0.4% 0.2%
x264 [info]: ref B L1: 92.7% 7.3%
x264 [info]: kb/s:3675.00
x264 [total]: encoded 125484 frames, 8.73 fps, 3675.00 kb/s, duration 3:59:40.38
Format                                   : MatroskaFormat version                           : Version 4 / Version 2File size                                : 2.75 GiBDuration                                 : 1h 35mnOverall bit rate                         : 4 130 KbpsEncoded date                             : UTC 2015-02-16 15:17:37Writing application                      : mkvmerge v6.7.0 ('Back to the Ground') 32bit built on Jan  8 2014 15:03:17Writing library                          : libebml v1.3.0 + libmatroska v1.4.1
VideoID : 1Format : AVCFormat/Info : Advanced Video CodecFormat profile : High@L4.1Format settings, CABAC : YesFormat settings, ReFrames : 12 framesCodec ID : V_MPEG4/ISO/AVCDuration : 1h 35mnBit rate : 3603 KbpsWidth : 1 152 pixelsHeight : 482 pixelsDisplay aspect ratio : 2.40:1Frame rate mode : ConstantFrame rate : 23.976 fpsColor space : YUVChroma subsampling : 4:2:0Bit depth : 8 bitsScan type : ProgressiveBits/(Pixel*Frame) : 0.246Stream size : 2.19 GiB (79%)Title : The Book of Life [rutracker.org]Writing library : x264 core 144 r2525kMod 40bb568Encoding settings : cabac=1 / ref=12 / deblock=1:-2:-1 / analyse=0x3:0x133 / me=umh / subme=11 / psy=1 / fade_compensate=0.00 / psy_rd=1.00:0.05 / mixed_ref=1 / me_range=32 / chroma_me=1 / trellis=2 / 8x8dct=1 / cqm=0 / deadzone=21,11 / fast_pskip=0 / chroma_qp_offset=-3 / threads=12 / lookahead_threads=3 / sliced_threads=0 / nr=0 / decimate=1 / interlaced=0 / bluray_compat=0 / constrained_intra=0 / fgo=0 / bframes=14 / b_pyramid=2 / b_adapt=2 / b_bias=0 / direct=3 / weightb=1 / open_gop=0 / weightp=2 / keyint=250 / keyint_min=23 / scenecut=40 / intra_refresh=0 / rc_lookahead=80 / rc=crf / mbtree=0 / crf=16.7000 / qcomp=0.60 / qpmin=0 / qpmax=69 / qpstep=4 / vbv_maxrate=50000 / vbv_bufsize=62500 / crf_max=0.0 / nal_hrd=none / filler=0 / ip_ratio=1.40 / pb_ratio=1.30 / aq=3:0.90Language : EnglishDefault : YesForced : No
Audio #1ID : 2Format : AC-3Format/Info : Audio Coding 3Mode extension : CM (complete main)Format settings, Endianness : BigCodec ID : A_AC3Duration : 1h 35mnBit rate mode : ConstantBit rate : 384 KbpsChannel(s) : 6 channelsChannel positions : Front: L C R, Side: L R, LFESampling rate : 48.0 KHzBit depth : 16 bitsCompression mode : LossyStream size : 262 MiB (9%)Title : MVOLanguage : RussianDefault : YesForced : No
Audio #2ID : 3Format : AC-3Format/Info : Audio Coding 3Mode extension : CM (complete main)Format settings, Endianness : BigCodec ID : A_AC3Duration : 1h 35mnBit rate mode : ConstantBit rate : 384 KbpsChannel(s) : 6 channelsChannel positions : Front: L C R, Side: L R, LFESampling rate : 48.0 KHzBit depth : 16 bitsCompression mode : LossyStream size : 262 MiB (9%)Title : OriginalLanguage : EnglishDefault : NoForced : No
Text #1ID : 4Format : UTF-8Codec ID : S_TEXT/UTF8Codec ID/Info : UTF-8 Plain TextLanguage : EnglishDefault : NoForced : No
Text #2ID : 5Format : UTF-8Codec ID : S_TEXT/UTF8Codec ID/Info : UTF-8 Plain TextLanguage : EnglishDefault : NoForced : No
Menu00:00:00.000 : en:00:00:00.00000:02:58.053 : en:00:02:58.05300:05:39.631 : en:00:05:39.63100:08:35.014 : en:00:08:35.01400:12:08.478 : en:00:12:08.47800:15:07.698 : en:00:15:07.69800:19:24.246 : en:00:19:24.24600:22:20.089 : en:00:22:20.08900:26:08.150 : en:00:26:08.15000:28:59.571 : en:00:28:59.57100:33:02.147 : en:00:33:02.14700:37:25.952 : en:00:37:25.95200:41:07.090 : en:00:41:07.09000:43:14.634 : en:00:43:14.63400:47:02.486 : en:00:47:02.48600:50:53.050 : en:00:50:53.05000:53:13.232 : en:00:53:13.23200:56:30.220 : en:00:56:30.22001:00:16.279 : en:01:00:16.27901:03:57.792 : en:01:03:57.79201:06:48.379 : en:01:06:48.37901:09:09.896 : en:01:09:09.89601:11:52.016 : en:01:11:52.01601:15:53.215 : en:01:15:53.21501:18:52.770 : en:01:18:52.77001:21:13.410 : en:01:21:13.41001:23:33.842 : en:01:23:33.84201:27:11.893 : en:01:27:11.893

Скриншоты




Продолжительность видеодорожки -1:27:13 (отсутствуют финальные титры)

_________________
Показать сообщения:    

Текущее время: Сегодня 20:28

Часовой пояс: GMT



Вы не можете начинать темы
Вы не можете отвечать на сообщения
Вы не можете редактировать свои сообщения
Вы не можете удалять свои сообщения
Вы не можете голосовать в опросах
Вы не можете прикреплять файлы к сообщениям
Вы не можете скачивать файлы
Наши партнеры: интернет магазин Ивановского трикотажа textilla.ru