Важное объявление!
У Нас Все раздачи мультитрекерные, при нуле пиров в релизах, можете смело вставать на закачку!
 
Автор Сообщение

HUNTER

Стаж:
4 года 4 месяца
Сообщений:
56749

Репутация: 101

[+] [-]
Вне форума [Профиль] [ЛС]

Ключи к успеху. Вадим Шлахтер и Наталья Грэйс (Эфир: 24 июня 2013)
Страна: Россия
Тематика: Психология
Тип раздаваемого материала: Телепередача
Продолжительность: 00:24:45
Год выпуска: 2013
Язык: Русский
Перевод: Не требуется
Язык субтитров: нет
Описание: Вадим Шлахтер, КПН, тренер личной эффективности в гостях у Натальи Грэйс в программе "Ключи к успеху".
Доп. информация:
Возможность комфортного просмотра видео на бытовом проигрывателе.
Качество: SATRip
Формат: AVI
Видео кодек: XviD
Аудио кодек: Mp3
Видео: XviD, 704x544, 25 fps, 1366 kbps
Аудио: MP3 44100Hz stereo 64kbps

MediaInfo

Общее
Полное имя : F:\Шлахтериана\Ключи к успеху. Вадим Шлахтер и Наталья Грэйс. 24 июня 2013.mp4
Формат : AVI
Формат/Информация : Audio Video Interleave
Размер файла : 254 Мбайт
Продолжительность : 24 м.
Общий поток : 1436 Кбит/сек
Программа кодирования : VirtualDubMod 1.5.4.1 (build 2178/release)
Библиотека кодирования : VirtualDubMod build 2178/release
TCOD : 0
TCDO : 14856800000
Видео
Идентификатор : 0
Формат : MPEG-4 Visual
Профиль формата : Advanced Simple@L5
Параметр BVOP формата : 1
Параметр QPel формата : Нет
Параметр GMC формата : Без точки перехода
Параметр матрицы формата : Выборочная
Идентификатор кодека : XVID
Идентификатор кодека/Подсказка : XviD
Продолжительность : 24 м.
Битрейт : 1366 Кбит/сек
Ширина : 704 пикс.
Высота : 544 пикс.
Соотношение сторон : 1,294
Частота кадров : 25,000 кадр/сек
Цветовое пространство : YUV
Подвыборка цветности : 4:2:0
Битовая глубина : 8 бит
Тип развёртки : Прогрессивная
Метод сжатия : С потерями
Бит/(Пиксели*Кадры) : 0.143
Размер потока : 242 Мбайт (95%)
Библиотека кодирования : XviD 1.2.0.dev47 (UTC 2006-11-01)
Аудио
Идентификатор : 1
Формат : MPEG Audio
Версия формата : Version 1
Профиль формата : Layer 3
Режим : Joint stereo
Расширение режима : MS Stereo
Идентификатор кодека : 55
Идентификатор кодека/Подсказка : MP3
Продолжительность : 24 м.
Вид битрейта : Постоянный
Битрейт : 64,0 Кбит/сек
Канал(ы) : 2 канала(ов)
Частота : 44,1 КГц
Метод сжатия : С потерями
Размер потока : 11,3 Мбайт (4%)
Выравнивание : Разделение по промежуткам
Продолжительность промежутка : 144 мс. (3,60 видеокадров)
Время предзагрузки промежутка : 576 ms

Скриншоты

Фоторепортаж


_________________
Показать сообщения:    

Текущее время: Сегодня 04:43

Часовой пояс: GMT



Вы не можете начинать темы
Вы не можете отвечать на сообщения
Вы не можете редактировать свои сообщения
Вы не можете удалять свои сообщения
Вы не можете голосовать в опросах
Вы не можете прикреплять файлы к сообщениям
Вы не можете скачивать файлы