Важное объявление!
У Нас Все раздачи мультитрекерные, при нуле пиров в релизах, можете смело вставать на закачку!
 
Автор Сообщение

HUNTER

Стаж:
4 года 4 месяца
Сообщений:
56733

Репутация: 101

[+] [-]
Вне форума [Профиль] [ЛС]

Клуб Винкс. Месть Трикс / Winx Club: Revenge of the Trix
Год выпуска: 2011
Страна: Италия
Жанр: мультфильм, семейный
Продолжительность: 00:45:59
Перевод: Профессиональный (дублированный), объединение «Русский дубляж» в 2011г.
Русские субтитры: телетекст
Режиссёр: Иджинио Страффи / Iginio Straffi
Описание: По ночам Блум видит странные сны: ей то и дело является нимфа Дафна, которая настойчиво пытается что-то сообщить.
Но юной фее никак не удается разгадать смысл своих ночных видений. Однако приезд в Гардинию всё меняет: Блум узнает шокирующий факт: оказывается, она не родная дочь своих родителей, а приемная...
Теперь ей во что бы то ни стало хочется узнать хоть что-то о своих настоящих папе и маме. А тем временем коварные феи Трикс готовят заговор, чтобы отобрать силу Блум. Ей будет нелегко справиться с тёмными силами, но мы-то знаем, что добро и дружба обязательно победят!
Релиз группы:
Трансляция спутникового канала:

Семпл: https://yadi.sk/i/Y7UVbHRWpz32L
Качество видео: DVB
Формат видео: MPEG-TS
Видео: MPEG4 Video (H264), 720x576@785x576 (4:3), анаморф, 25 fps, 2700 kbps
Аудио: MPEG Audio, 2 сh, 48 kHz, 192 kbps

MediaInfo

General
ID : 1 (0x1)
Complete name : G:\Клуб Винкс. Месть Трикс. (2011)_DVB by SLuMeP.ts
Format : MPEG-TS
File size : 994 MiB
Duration : 45mn 59s
Overall bit rate mode : Variable
Overall bit rate : 3 022 Kbps
Video
ID : 1081 (0x439)
Menu ID : 1080 (0x438)
Format : AVC
Format/Info : Advanced Video Codec
Format profile : Main@L3
Format settings, CABAC : Yes
Format settings, ReFrames : 4 frames
Codec ID : 27
Duration : 45mn 59s
Bit rate : 2 678 Kbps
Width : 720 pixels
Height : 576 pixels
Display aspect ratio : 4:3
Frame rate : 25.000 fps
Standard : Component
Color space : YUV
Chroma subsampling : 4:2:0
Bit depth : 8 bits
Scan type : Interlaced
Scan type, store method : Separated fields
Scan order : Top Field First
Bits/(Pixel*Frame) : 0.258
Stream size : 881 MiB (89%)
Color range : Limited
Color primaries : BT.601 PAL
Transfer characteristics : BT.470 System B, BT.470 System G
Matrix coefficients : BT.601
Audio
ID : 1082 (0x43A)
Menu ID : 1080 (0x438)
Format : MPEG Audio
Format version : Version 1
Format profile : Layer 2
Codec ID : 3
Duration : 45mn 59s
Bit rate mode : Constant
Bit rate : 192 Kbps
Channel(s) : 2 channels
Sampling rate : 48.0 KHz
Compression mode : Lossy
Delay relative to video : -80ms
Stream size : 63.2 MiB (6%)
Language : Russian
Text
ID : 1083 (0x43B)-100
Menu ID : 1080 (0x438)
Format : Teletext
Language : Russian

Скриншоты



_________________
Показать сообщения:    

Текущее время: Сегодня 18:38

Часовой пояс: GMT



Вы не можете начинать темы
Вы не можете отвечать на сообщения
Вы не можете редактировать свои сообщения
Вы не можете удалять свои сообщения
Вы не можете голосовать в опросах
Вы не можете прикреплять файлы к сообщениям
Вы не можете скачивать файлы