Важное объявление!
У Нас Все раздачи мультитрекерные, при нуле пиров в релизах, можете смело вставать на закачку!
 
Автор Сообщение

HUNTER

Стаж:
4 года 4 месяца
Сообщений:
56808

Репутация: 101

[+] [-]
Вне форума [Профиль] [ЛС]

КЛИНОК И ДУША / Blade and Soul / ブレイドアンドソウル
Страна: Япония
Год выпуска: 2014 г.
Жанр: Приключения, фэнтези, боевые искусства
Продолжительность: 12 эп. по 25 мин-Русские субтитры: Alvakarp
Перевод: Esito
Редактура: Esito-Русские субтитры: Werebeast
Перевод: JakeStar
Редактура: Werebeast
Режиссер: Такэути Хироси
Студия:
Описание: Сюжет основан на игре, что набрала миллионы посетителей, игра про восточные единоборства.. Нам представлена девушка по имени Алки, она - великолепный воин, и просто мастер во владении клинками. Её учителя, Хона, совсем недавно убили, и девушка теперь ищет этого самого убийцу. Зовут её – Дзин Валел(самое интересное-то, что она является одной из главных героинь), а ей нравится убивать всея и всё. Просто так, у неё такое хобби. И ей удается избегать правосудия! И она находится еще и в клане убийц, причем в том клане, где находится наша первая главная героиня. Именно это и есть главное сходство между убийцами. Пока Алка ищет убийцу, она встречает еще трех девушек – певунью, танцовщицу и начальницу гостиницы. Начальница – предводитель воров, еще ей нравится выпивка и стрелы. Поединков в этом сериале предостаточно, так что вы не заскучаете.
Равка: Leopard-Raws
Качество: HDTVRip
Хардсаб: Отсутствует
Формат видео: mp4
Видео: AVC, 8 bits, 1280x720; 23.976 fps; 1716 Kbps, (16:9)
Аудио:
1. JP - AAC, 48.0 KHz, 192 kbps, 2 ch

Список эпизодов

01.

Скриншоты

MediaInfo

Общее
Полное имя : D:\[Leopard-Raws]\[Leopard-Raws] Blade and Soul\[Leopard-Raws] Blade and Soul - 01 RAW (TBS 1280x720 x264 AAC).mp4
Формат : MPEG-4
Профиль формата : Base Media
Идентификатор кодека : isom
Размер файла : 335 Мбайт
Продолжительность : 24 м.
Режим общего битрейта : Переменный
Общий поток : 1912 Кбит/сек
Дата кодирования : UTC 2014-04-04 03:40:22
Дата пометки : UTC 2014-04-04 03:40:22
Видео
Идентификатор : 1
Формат : AVC
Формат/Информация : Advanced Video Codec
Профиль формата : High@L4.1
Параметр CABAC формата : Да
Параметр ReFrames формата : 4 кадра
Идентификатор кодека : avc1
Идентификатор кодека/Информация : Advanced Video Coding
Продолжительность : 24 м.
Битрейт : 1716 Кбит/сек
Максимальный битрейт : 11,8 Мбит/сек
Ширина : 1280 пикселей
Высота : 720 пикселей
Соотношение сторон : 16:9
Режим частоты кадров : Постоянный
Частота кадров : 23,976 кадра/сек
Цветовое пространство : YUV
Субдискретизация насыщенности : 4:2:0
Битовая глубина : 8 бит
Тип развёртки : Прогрессивная
Бит/(Пиксели*Кадры) : 0.078
Размер потока : 301 Мбайт (90%)
Заголовок : 264:fps=23.976@GPAC0.5.1-DEV-rev4283
Библиотека кодирования : x264 core 129 r2245+729M 1a52e03
Настройки программы : cabac=1 / ref=4 / deblock=1:1:-1 / analyse=0x3:0x113 / me=umh / subme=9 / psy=1 / fade_compensate=0.00 / psy_rd=1.00:0.00 / mixed_ref=1 / me_range=24 / chroma_me=1 / trellis=2 / 8x8dct=1 / cqm=0 / deadzone=21,11 / fast_pskip=1 / chroma_qp_offset=-2 / threads=8 / lookahead_threads=1 / sliced_threads=0 / nr=0 / decimate=1 / interlaced=0 / bluray_compat=0 / constrained_intra=0 / fgo=0 / bframes=9 / b_pyramid=2 / b_adapt=2 / b_bias=0 / direct=1 / weightb=1 / open_gop=0 / weightp=2 / keyint=240 / keyint_min=24 / scenecut=40 / intra_refresh=0 / rc=crf / mbtree=0 / crf=19.0 / qcomp=0.72 / qpmin=0 / qpmax=69 / qpstep=4 / ip_ratio=1.40 / pb_ratio=1.30 / aq=1:0.85
Дата кодирования : UTC 2014-04-04 03:40:22
Дата пометки : UTC 2014-04-04 03:40:24
Основные цвета : BT.709
Характеристики трансфера : BT.709
Коэффициенты матрицы : BT.709
Аудио
Идентификатор : 2
Формат : AAC
Формат/Информация : Advanced Audio Codec
Профиль формата : LC
Идентификатор кодека : 40
Продолжительность : 24 м.
Вид битрейта : Переменный
Битрейт : 192 Кбит/сек
Максимальный битрейт : 235 Кбит/сек
Каналы : 2 канала
Расположение каналов : Front: L R
Частота : 48,0 КГц
Метод сжатия : С потерями
Размер потока : 33,6 Мбайт (10%)
Язык : Japanese
Дата кодирования : UTC 2014-04-03 17:59:53
Дата пометки : UTC 2014-04-04 03:40:24

Обновите торрент фал, добавлены ольтернативные субтитры. Приятного просмотра

_________________
Показать сообщения:    

Текущее время: Сегодня 10:14

Часовой пояс: GMT



Вы не можете начинать темы
Вы не можете отвечать на сообщения
Вы не можете редактировать свои сообщения
Вы не можете удалять свои сообщения
Вы не можете голосовать в опросах
Вы не можете прикреплять файлы к сообщениям
Вы не можете скачивать файлы