Важное объявление!
У Нас Все раздачи мультитрекерные, при нуле пиров в релизах, можете смело вставать на закачку!
 
Автор Сообщение

HUNTER

Стаж:
4 года 4 месяца
Сообщений:
56772

Репутация: 101

[+] [-]
Вне форума [Профиль] [ЛС]

Клин клином / Fire with Fire-
Страна: США
Жанр: боевик, триллер, драма, криминал
Год выпуска: 2012
Продолжительность: 01:37:31
Перевод: Профессиональный (многоголосый закадровый)
Cубтитры: английские
Оригинальная аудиодорожка: английский-Режиссер: Дэвид Баррет / David Barrett
В ролях: Джош Дюамель, Розарио Доусон, Брюс Уиллис, Винсент Д’Онофрио, Фифти Сент, Винни Джонс, Кертис Джексон, Ричард Шифф, Джеймс Лежер, Куинтон Джексон, Эри Вервин.
Описание: Это история о необычных событиях, произошедших в жизни простого пожарного по имени Джереми Колман. Однажды он возвращается домой после тяжелого рабочего дня и, как обычно, заходит в супермаркет, где ему приходится лицом к лицу столкнуться с преступником, который просто в магазине совершил убийство. Джереми удалось выжить после этой встречи и теперь он в качестве свидетеля будет давать показания в суде, кроме того он всеми силами пытается помочь следствию. Детектив Майк Сел берется за расследование этого дела. Теперь Джереми приходится уволиться с работы, потому что он проходит по программе защиты свидетелей. Жизнь Колмана перевернулась с ног на голову и теперь ему постоянно грозит серьезная опасность.-Качество: BDRip 1080p | Формат: MKV | HDMaNiAcS
Видео: 1920x800 (2.40:1), 23.976 fps, x264@L4.1 ~ 12000 kbps avg
Аудио 1: Russian 48 kHz, AC3, 3/2 (L,C,R,l,r) + LFE ch, 448.00 kbps avg | R5
Аудио 2: English 48 kHz, DTS, 3/2 (L,C,R,l,r) + LFE ch, 1509.00 kbps avg | Original
Формат субтитров: srt | Sample

Скриншоты

Медиаинфо

Общее
Формат : Matroska
Версия формата : Version 4 / Version 2
Размер файла : 9,51 Гбайт
Продолжительность : 1 ч. 37 м.
Общий поток : 14,0 Мбит/сек
Название фильма : Fire with Fire 2012
Дата кодирования : UTC 2014-03-12 17:01:04
Программа кодирования : mkvmerge v6.6.0 ('The Edge Of The In Between') built on Dec 1 2013 17:55:00
Библиотека кодирования : libebml v1.3.0 + libmatroska v1.4.1
Видео
Идентификатор : 1
Формат : AVC
Формат/Информация : Advanced Video Codec
Профиль формата : High@L4.1
Параметр CABAC формата : Да
Параметр ReFrames формата : 5 кадров
Идентификатор кодека : V_MPEG4/ISO/AVC
Продолжительность : 1 ч. 37 м.
Битрейт : 12,0 Мбит/сек
Ширина : 1920 пикселей
Высота : 804 пикселя
Соотношение сторон : 2,40:1
Режим частоты кадров : Постоянный
Частота кадров : 23,976 кадра/сек
Цветовое пространство : YUV
Субдискретизация насыщенности : 4:2:0
Битовая глубина : 8 бит
Тип развёртки : Прогрессивная
Бит/(Пиксели*Кадры) : 0.324
Размер потока : 7,99 Гбайт (84%)
Заголовок : BDRip 1080p
Библиотека кодирования : x264 core 128 r2216 198a7ea
Настройки программы : cabac=1 / ref=5 / deblock=1:-3:-3 / analyse=0x3:0x113 / me=tesa / subme=11 / psy=1 / psy_rd=1.05:0.00 / mixed_ref=1 / me_range=24 / chroma_me=1 / trellis=2 / 8x8dct=1 / cqm=0 / deadzone=21,11 / fast_pskip=1 / chroma_qp_offset=-2 / threads=12 / lookahead_threads=2 / sliced_threads=0 / nr=0 / decimate=1 / interlaced=0 / bluray_compat=0 / constrained_intra=0 / bframes=8 / b_pyramid=2 / b_adapt=2 / b_bias=0 / direct=3 / weightb=1 / open_gop=0 / weightp=2 / keyint=240 / keyint_min=23 / scenecut=40 / intra_refresh=0 / rc_lookahead=90 / rc=2pass / mbtree=1 / bitrate=12000 / ratetol=1.0 / qcomp=0.65 / qpmin=10 / qpmax=69 / qpstep=4 / cplxblur=20.0 / qblur=0.5 / ip_ratio=1.40 / aq=2:0.85
Язык : English
Default : Да
Forced : Нет
Аудио #1
Идентификатор : 2
Формат : AC-3
Формат/Информация : Audio Coding 3
Расширение режима : CM (complete main)
Параметр Endianness формата : Big
Идентификатор кодека : A_AC3
Продолжительность : 1 ч. 37 м.
Вид битрейта : Постоянный
Битрейт : 448 Кбит/сек
Каналы : 6 каналов
Расположение каналов : Front: L C R, Side: L R, LFE
Частота : 48,0 КГц
Битовая глубина : 16 бит
Метод сжатия : С потерями
Размер потока : 313 Мбайт (3%)
Заголовок : MVO R5
Язык : Russian
Default : Да
Forced : Нет
Аудио #2
Идентификатор : 3
Формат : DTS
Формат/Информация : Digital Theater Systems
Режим : 16
Параметр Endianness формата : Big
Идентификатор кодека : A_DTS
Продолжительность : 1 ч. 37 м.
Вид битрейта : Постоянный
Битрейт : 1509 Кбит/сек
Каналы : 6 каналов
Расположение каналов : Front: L C R, Side: L R, LFE
Частота : 48,0 КГц
Битовая глубина : 24 бит
Метод сжатия : С потерями
Размер потока : 1,03 Гбайт (11%)
Заголовок : Origenal
Язык : English
Default : Нет
Forced : Нет
Текст #1
Идентификатор : 4
Формат : UTF-8
Идентификатор кодека : S_TEXT/UTF8
Идентификатор кодека/Информация : UTF-8 Plain Text
Заголовок : Full
Язык : English
Default : Нет
Forced : Нет
Текст #2
Идентификатор : 5
Формат : UTF-8
Идентификатор кодека : S_TEXT/UTF8
Идентификатор кодека/Информация : UTF-8 Plain Text
Заголовок : Full SDH
Язык : English
Default : Нет
Forced : Нет
Меню
00:00:00.000 : en:00:00:00.000
00:03:36.091 : en:00:03:36.091
00:08:34.013 : en:00:08:34.013
00:16:14.765 : en:00:16:14.765
00:20:42.283 : en:00:20:42.283
00:26:58.242 : en:00:26:58.242
00:31:47.614 : en:00:31:47.614
00:38:16.419 : en:00:38:16.419
00:41:43.710 : en:00:41:43.710
00:45:02.783 : en:00:45:02.783
00:49:18.622 : en:00:49:18.622
00:56:32.180 : en:00:56:32.180
01:00:33.046 : en:01:00:33.046
01:05:14.119 : en:01:05:14.119
01:12:39.188 : en:01:12:39.188
01:23:30.339 : en:01:23:30.339

_________________
Показать сообщения:    

Текущее время: Сегодня 09:48

Часовой пояс: GMT



Вы не можете начинать темы
Вы не можете отвечать на сообщения
Вы не можете редактировать свои сообщения
Вы не можете удалять свои сообщения
Вы не можете голосовать в опросах
Вы не можете прикреплять файлы к сообщениям
Вы не можете скачивать файлы