Важное объявление!
У Нас Все раздачи мультитрекерные, при нуле пиров в релизах, можете смело вставать на закачку!
 
Автор Сообщение

HUNTER

Стаж:
4 года 4 месяца
Сообщений:
56790

Репутация: 101

[+] [-]
Вне форума [Профиль] [ЛС]

Клетка для кроликов / Rabbit-Proof Fence
Страна: Австралия
Студия: Rumbalara Films, Australian Film Commission, The, Australian Film Finance Corporation (AFFC)
Жанр: драма, приключения, история
Год выпуска: 2002
Продолжительность: 01:33:46
Перевод: Профессиональный (двухголосый закадровый)
Cубтитры: русские, английские (отключаемые), английский хардсаб на речь австралийских аборигенов
Оригинальная аудиодорожка: английский
Режиссер: Филлип Нойс / Phillip Noyce
В ролях: Кеннет Брана, Эверлин Сэмпи, Лаура Монаган, Тьяна Сэнсбери, Дэвид Гулпилил, Дебора Мэйлман, Джейсон Кларк, Наташа Вэнганин
Описание: В начале прошлого века «цивилизованные» белые австралийцы пытались приручить своих «младших братьев», местных аборигенов. Приручив, использовать их для своих бытовых нужд. Для этого, к примеру, создавались специальные школы, в которых девочек обучали быть прислугами в обеспеченных семьях белых переселенцев.
В одну из таких школ и попадают 14-летняя Молли, ее 8-летняя сестра Дэйзи и их 10-летняя кузина Трэйси. В неволе девочки долго не выдерживают, бегут обратно домой, который теперь от них — на расстоянии в полторы тысячи миль и оказываются совсем одни в пустынной местности, где только ограждение против кроликов остается их проводником по дороге в родной дом.

Тип релиза: WEB-DL 720p
Контейнер: MKV
Видео кодек: H264
Аудио кодек: AC3
Видео: 1280x542 (2.35:1), 23.976 fps, H264, ~3839 kbps avg, 0.231 bit/pixel
Аудио 1: 48 kHz, AC3 Dolby Digital, 3/2 (L,C,R,l,r) + LFE ch, ~384 kbps - Двухголоска
Аудио 2: 48 kHz, AC3 Dolby Digital, 3/2 (L,C,R,l,r) + LFE ch, ~384 kbps - Оригинал
Формат субтитров: softsub (SRT)

MediaInfo

Complete name : Kletka.dlya.krolikov.2002.WEBDL720p.mkv
Format : Matroska
Format version : Version 2
File size : 3.08 GiB
Duration : 1h 33mn
Overall bit rate : 4 701 Kbps
Encoded date : UTC 2014-01-31 21:56:55
Writing application : mkvmerge v4.0.0 ('The Stars were mine') сборка от Jun 6 2010 16:18:42
Writing library : libebml v1.0.0 + libmatroska v1.0.0
Video
ID : 1
Format : AVC
Format/Info : Advanced Video Codec
Format profile : Main@L3.1
Format settings, CABAC : No
Format settings, ReFrames : 2 frames
Codec ID : V_MPEG4/ISO/AVC
Duration : 1h 33mn
Bit rate : 3 839 Kbps
Width : 1 280 pixels
Height : 542 pixels
Display aspect ratio : 2.35:1
Frame rate mode : Constant
Frame rate : 23.976 fps
Color space : YUV
Chroma subsampling : 4:2:0
Bit depth : 8 bits
Scan type : Progressive
Bits/(Pixel*Frame) : 0.231
Stream size : 2.51 GiB (82%)
Language : English
Default : No
Forced : No
Color primaries : BT.709
Transfer characteristics : BT.709
Matrix coefficients : BT.709
Audio #1
ID : 2
Format : AC-3
Format/Info : Audio Coding 3
Mode extension : CM (complete main)
Format settings, Endianness : Big
Codec ID : A_AC3
Duration : 1h 33mn
Bit rate mode : Constant
Bit rate : 384 Kbps
Channel count : 6 channels
Channel positions : Front: L C R, Side: L R, LFE
Sampling rate : 48.0 KHz
Bit depth : 16 bits
Compression mode : Lossy
Stream size : 258 MiB (8%)
Language : Russian
Default : Yes
Forced : No
Audio #2
ID : 3
Format : AC-3
Format/Info : Audio Coding 3
Mode extension : CM (complete main)
Format settings, Endianness : Big
Codec ID : A_AC3
Duration : 1h 33mn
Bit rate mode : Constant
Bit rate : 384 Kbps
Channel count : 6 channels
Channel positions : Front: L C R, Side: L R, LFE
Sampling rate : 48.0 KHz
Bit depth : 16 bits
Compression mode : Lossy
Stream size : 258 MiB (8%)
Language : English
Default : No
Forced : No
Text #1
ID : 4
Format : UTF-8
Codec ID : S_TEXT/UTF8
Codec ID/Info : UTF-8 Plain Text
Language : Russian
Default : No
Forced : No
Text #2
ID : 5
Format : UTF-8
Codec ID : S_TEXT/UTF8
Codec ID/Info : UTF-8 Plain Text
Language : English
Default : No
Forced : No
Menu
00:00:00.000 : en:1
00:05:35.000 : en:2
00:14:01.000 : en:3
00:23:55.000 : en:4
00:32:07.000 : en:5
00:40:44.000 : en:6
00:46:46.000 : en:7
00:56:33.000 : en:8
01:06:14.000 : en:9
01:15:45.000 : en:10
01:23:00.000 : en:11
01:26:39.000 : en:12

Скриншоты


_________________
Показать сообщения:    

Текущее время: Сегодня 08:31

Часовой пояс: GMT



Вы не можете начинать темы
Вы не можете отвечать на сообщения
Вы не можете редактировать свои сообщения
Вы не можете удалять свои сообщения
Вы не можете голосовать в опросах
Вы не можете прикреплять файлы к сообщениям
Вы не можете скачивать файлы