Важное объявление!
У Нас Все раздачи мультитрекерные, при нуле пиров в релизах, можете смело вставать на закачку!
 
Автор Сообщение

HUNTER

Стаж:
4 года 4 месяца
Сообщений:
56798

Репутация: 101

[+] [-]
Вне форума [Профиль] [ЛС]

Кладбище домашних животных 2 / Pet Sematary II
Страна: США
Студия: Paramount Pictures & Columbus Circle Films
Жанр: ужасы, боевик, триллер
Год выпуска: 1992
Продолжительность: 01:40:26
Перевод 1: Авторский (одноголосый закадровый) АНДРЕЙ ГАВРИЛОВ
Перевод 2: Профессиональный (многоголосый закадровый)
Cубтитры: английские
Оригинальная аудиодорожка: английский
Режиссер: Мэри Ламберт / Mary Lambert
В ролях: Эдвард Ферлонг /Edward Furlong/, Клэнси Браун /Clancy Brown/, Джэред Раштон /Jared Rushton/, Джейсон МакГуайр /Jason McGuire/, Энтони Эдвардс /Anthony Edwards/, Лиза Уолц /Lisa Waltz/, Сара Триггер /Sarah Trigger/, Дарлэнн Флюгел /Darlanne Fluegel/
Описание: После смерти жены ветеринар Чейз Мэтьюз и его тринадцатилетний сын Джефф решают начать новую жизнь. Отец и сын переезжают в захолустный городок Ладлоу. Здесь Джефф знакомится с подростком по имени Дрю.
Как выяснилось, новому приятелю Джеффа живется несладко. Над Дрю постоянно издевается его отчим — местный шериф Гас Гилберт. Однажды, когда жестокость отчима перешла все границы, он хладнокровно пристрелил любимую собаку Дрю.
Теперь мальчикам предстоит похоронить пса. И они решают сделать это на старом индейском кладбище, про которое ходят жуткие легенды. Рассказывают, что если закопать на нем мертвеца, то через некоторое время он обязательно вернется…
--------------------------------------------------
Оператор: Расселл Карпентер /Russell Carpenter/
Сценарист: Ричард Ауттен /Richard Outten/
Продюсер: Ралф С. Синглтон /Ralph S. Singleton/
Монтажер: Том Финэн /Tom Finan/
Композитор: Марк Гавернор /Mark Governor/
Художник: Мишель Минч /Michelle Minch/
Костюмы: Марлин Стюарт /Marlene Stewart/
По произведению: Стивен Кинг /Stephen King/
--------------------------------------------------
КИНОПОИСК. RU
РЕЙТИНГ 6.196 оценки: 4425
4,6/10 from 11 469 users
-------------------------------------------------
Доп. информация: Видеоряд >>>Pet.Sematary.II.1992.720p.WEB-DL.H264-HDB
Русский звук отсюда >>> DVD5 - Спасибо dida_55
--------------------------------------------------
СЭМПЛ
--------------------------------------------------
Тип релиза: WEB-DL 720p
Контейнер: MKV
Видео: 1278 x720; 23.976 fps; ~ 4000 Kbps; 0.181 Bits/Pixel
Аудио 1: Russian - 48 kHz, AC3 Dolby Digital, 2/0 (L,R) 2ch, ~192 kbps - Андрей Гаврилов
Аудио 2: Russian - 48 kHz, AC3 Dolby Digital, Front: L C R, Side: L R, LFE, ~ 448 kbps - МVO
Аудио 3: English - 48 kHz, AC3 Dolby Digital, Front: L C R, Side: L R, LFE, ~ 448 kbps - Original
Формат субтитров: English (*UTF-8)

MediaInfo

General
Complete name : F:\EXCLUZIVE=19\КЛАДБИЩЕ ДОМАШНИХ ЖИВОТНЫХ 2=PET SEMATARY TWO\Pet.Sematary.II.1992\Pet.Sematary.II.1992.720p.WEB-DL.mkv
Format : Matroska
File size : 3.64 GiB
Duration : 1h 40mn
Overall bit rate : 5 191 Kbps
Encoded date : UTC 2014-10-09 15:55:20
Writing application : mkvmerge v3.3.0 ('Language') built on Mar 24 2010 14:59:24
Writing library : libebml v0.8.0 + libmatroska v0.9.0
Video
ID : 1
Format : AVC
Format/Info : Advanced Video Codec
Format profile : High@L3.1
Format settings, CABAC : No
Format settings, ReFrames : 2 frames
Muxing mode : Container profile=Unknown@3.1
Codec ID : V_MPEG4/ISO/AVC
Duration : 1h 40mn
Bit rate : 4 000 Kbps
Width : 1 278 pixels
Height : 720 pixels
Display aspect ratio : 16:9
Frame rate : 23.976 fps
Color space : YUV
Chroma subsampling : 4:2:0
Bit depth : 8 bits
Scan type : Progressive
Bits/(Pixel*Frame) : 0.181
Stream size : 2.81 GiB (77%)
Title : Pet.Sematary.II.1992
Language : English
Color primaries : BT.709-5, BT.1361, IEC 61966-2-4, SMPTE RP177
Transfer characteristics : BT.709-5, BT.1361
Matrix coefficients : BT.709-5, BT.1361, IEC 61966-2-4 709, SMPTE RP177
Audio #1
ID : 2
Format : AC-3
Format/Info : Audio Coding 3
Mode extension : CM (complete main)
Codec ID : A_AC3
Duration : 1h 40mn
Bit rate mode : Constant
Bit rate : 192 Kbps
Channel(s) : 2 channels
Channel positions : Front: L R
Sampling rate : 48.0 KHz
Stream size : 138 MiB (4%)
Title : AVO Гаврилов @ AC3 2ch. @ 192 kbps
Language : Russian
Audio #2
ID : 3
Format : AC-3
Format/Info : Audio Coding 3
Mode extension : CM (complete main)
Codec ID : A_AC3
Duration : 1h 40mn
Bit rate mode : Constant
Bit rate : 448 Kbps
Channel(s) : 6 channels
Channel positions : Front: L C R, Side: L R, LFE
Sampling rate : 48.0 KHz
Stream size : 322 MiB (9%)
Title : MVO @ AC3 6ch. @ 448 kbps
Language : Russian
Audio #3
ID : 4
Format : AC-3
Format/Info : Audio Coding 3
Mode extension : CM (complete main)
Codec ID : A_AC3
Duration : 1h 40mn
Bit rate mode : Constant
Bit rate : 448 Kbps
Channel(s) : 6 channels
Channel positions : Front: L C R, Side: L R, LFE
Sampling rate : 48.0 KHz
Stream size : 322 MiB (9%)
Title : Original @ AC3 6ch. @ 448 kbps
Language : English
Text
ID : 5
Format : UTF-8
Codec ID : S_TEXT/UTF8
Codec ID/Info : UTF-8 Plain Text
Title : (* UTF-8)
Language : English
Menu
00:00:00.000 : en:A Terrible Accident
00:08:07.000 : en:Starting Over
00:14:59.000 : en:Celebrity Boy
00:24:40.000 : en:Zowie
00:31:12.000 : en:Indian Burial Ground
00:42:00.000 : en:Happy Halloween
00:51:07.000 : en:Gus Returns
00:55:01.000 : en:Dead Animals
01:05:32.000 : en:Road Kill
01:15:46.000 : en:You Bury Your Own
01:23:04.000 : en:No Brain, No Pain
01:27:17.000 : en:Dead Is Better
01:36:46.000 : en:Credits

Скриншоты

, ,
, ,
, ,
Мои раздачи фильмов в Авторском переводе

_________________
Показать сообщения:    

Текущее время: Сегодня 20:44

Часовой пояс: GMT



Вы не можете начинать темы
Вы не можете отвечать на сообщения
Вы не можете редактировать свои сообщения
Вы не можете удалять свои сообщения
Вы не можете голосовать в опросах
Вы не можете прикреплять файлы к сообщениям
Вы не можете скачивать файлы