Важное объявление!
У Нас Все раздачи мультитрекерные, при нуле пиров в релизах, можете смело вставать на закачку!
 
Автор Сообщение

HUNTER

Стаж:
4 года 4 месяца
Сообщений:
56790

Репутация: 101

[+] [-]
Вне форума [Профиль] [ЛС]

Кладбище без Крестов / Веревка и Кольт / Cemetery Without Crosses / The Rope and the Colt / Une Corde, Un Colt / Friedhof ohne Kreuze
Страна: Франция, Италия, Испания
Жанр: Вестерн
Год выпуска: 1969
Продолжительность: 01:30:49-Перевод 1: Профессиональный (многоголосый закадровый)
Перевод 2: Одноголосый закадровый
Cубтитры: английские
Оригинальная аудиодорожка: французский-Режиссер: Роберт Оссейн / Robert Hossein-В ролях: Мишель Мерсье, Робер Оссейн, Гуидо Лоллобриджида, Даниэле Варгас, Серж Маркан, Pierre Hatet, Филипп Баронне, Пьер Колле, Ивано Стацциоли, Беатрис Альтариба-Описание:
Вдова нанимает опытного бандита, чтобы отомстить за убийство своего мужа. История банальна, но ее начало, развитие и потрясающая концовка очень драматичны. Фактически построение сцен и музыкальное сопровождение производят впечатление античной трагедии!-Сэмпл: Скачать-Тип релиза: BDRip 720p
Контейнер: MKV-Видео: 1 200x720 (1.667); 7600 Kbps; 23.976 fps; 0.558 bpp
Аудио 1: Russian; AC3; 48.0 KHz; 2ch; 192 Kbps MVO
Аудио 2: Russian; AC3; 48.0 KHz; 2ch; 192 Kbps VO
Аудио 3: French; AC3; 48.0 KHz; 2ch; 192 Kbps
Аудио 4: Italian; FLAC; 48.0 KHz; 2ch; 649 Kbps
Формат субтитров: softsub (Srt)

MediaInfo

Format : Matroska
Format version : Version 4 / Version 2
File size : 5.60 GiB
Duration : 1h 30mn
Overall bit rate mode : Variable
Overall bit rate : 8 829 Kbps
Encoded date : UTC 2015-09-14 14:35:54
Writing application : mkvmerge v8.1.0 ('Psychedelic Postcard') 64bit
Writing library : libebml v1.3.1 + libmatroska v1.4.2
Attachements : poster.jpg
DURATION : 01:20:16.002000000
NUMBER_OF_FRAMES : 299
NUMBER_OF_BYTES : 10169
_STATISTICS_WRITING_APP : mkvmerge v8.1.0 ('Psychedelic Postcard') 64bit
_STATISTICS_WRITING_DATE_UTC : 2015-09-14 14:35:54
_STATISTICS_TAGS : BPS DURATION NUMBER_OF_FRAMES NUMBER_OF_BYTES
Video
ID : 1
Format : AVC
Format/Info : Advanced Video Codec
Format profile : High@L4.1
Format settings, CABAC : Yes
Format settings, ReFrames : 9 frames
Codec ID : V_MPEG4/ISO/AVC
Duration : 1h 30mn
Nominal bit rate : 7 600 Kbps
Width : 1 200 pixels
Height : 720 pixels
Display aspect ratio : 1.667
Frame rate mode : Constant
Frame rate : 23.976 fps
Color space : YUV
Chroma subsampling : 4:2:0
Bit depth : 8 bits
Scan type : Progressive
Bits/(Pixel*Frame) : 0.367
Writing library : x264 core 146 r2538 121396c
Encoding settings : cabac=1 / ref=9 / deblock=1:-3:-3 / analyse=0x3:0x133 / me=umh / subme=11 / psy=1 / psy_rd=1.08:0.00 / mixed_ref=1 / me_range=24 / chroma_me=1 / trellis=2 / 8x8dct=1 / cqm=0 / deadzone=21,11 / fast_pskip=0 / chroma_qp_offset=-2 / threads=12 / lookahead_threads=3 / sliced_threads=0 / nr=0 / decimate=0 / interlaced=0 / bluray_compat=0 / constrained_intra=0 / bframes=12 / b_pyramid=2 / b_adapt=2 / b_bias=0 / direct=3 / weightb=1 / open_gop=0 / weightp=2 / keyint=240 / keyint_min=23 / scenecut=40 / intra_refresh=0 / rc_lookahead=60 / rc=2pass / mbtree=0 / bitrate=7600 / ratetol=1.0 / qcomp=0.65 / qpmin=0 / qpmax=69 / qpstep=4 / cplxblur=20.0 / qblur=0.5 / vbv_maxrate=62500 / vbv_bufsize=78125 / nal_hrd=none / filler=0 / ip_ratio=1.40 / pb_ratio=1.30 / aq=1:1.00
Default : Yes
Forced : No
Audio #1
ID : 2
Format : AC-3
Format/Info : Audio Coding 3
Mode extension : CM (complete main)
Format settings, Endianness : Big
Codec ID : A_AC3
Duration : 1h 30mn
Bit rate mode : Constant
Bit rate : 192 Kbps
Channel(s) : 2 channels
Channel positions : Front: L R
Sampling rate : 48.0 KHz
Bit depth : 16 bits
Compression mode : Lossy
Stream size : 125 MiB (2%)
Title : MVO
Language : Russian
Default : Yes
Forced : No
Audio #2
ID : 3
Format : AC-3
Format/Info : Audio Coding 3
Mode extension : CM (complete main)
Format settings, Endianness : Big
Codec ID : A_AC3
Duration : 1h 30mn
Bit rate mode : Constant
Bit rate : 192 Kbps
Channel(s) : 2 channels
Channel positions : Front: L R
Sampling rate : 48.0 KHz
Bit depth : 16 bits
Compression mode : Lossy
Stream size : 125 MiB (2%)
Title : VO Кличка Немец
Language : Russian
Default : No
Forced : No
Audio #3
ID : 4
Format : AC-3
Format/Info : Audio Coding 3
Mode extension : CM (complete main)
Format settings, Endianness : Big
Codec ID : A_AC3
Duration : 1h 30mn
Bit rate mode : Constant
Bit rate : 192 Kbps
Channel(s) : 2 channels
Channel positions : Front: L R
Sampling rate : 48.0 KHz
Bit depth : 16 bits
Compression mode : Lossy
Stream size : 125 MiB (2%)
Language : French
Default : No
Forced : No
Audio #4
ID : 5
Format : FLAC
Format/Info : Free Lossless Audio Codec
Codec ID : A_FLAC
Duration : 1h 30mn
Bit rate mode : Variable
Channel(s) : 1 channel
Sampling rate : 48.0 KHz
Bit depth : 24 bits
Writing library : libFLAC 1.2.1 (UTC 2007-09-17)
Language : Italian
Default : No
Forced : No
Text
ID : 6
Format : UTF-8
Codec ID : S_TEXT/UTF8
Codec ID/Info : UTF-8 Plain Text
Language : English
Default : No
Forced : No
Menu
00:00:00.000 : en:00:00:00.000
00:06:41.401 : en:00:06:41.401
00:13:24.012 : en:00:13:24.012
00:20:12.628 : en:00:20:12.628
00:29:00.739 : en:00:29:00.739
00:38:04.240 : en:00:38:04.240
00:45:09.916 : en:00:45:09.916
00:53:46.557 : en:00:53:46.557
01:00:00.597 : en:01:00:00.597
01:07:52.068 : en:01:07:52.068
01:17:07.039 : en:01:17:07.039
01:24:40.993 : en:01:24:40.993

Скриншоты


_________________
Показать сообщения:    

Текущее время: Сегодня 15:02

Часовой пояс: GMT



Вы не можете начинать темы
Вы не можете отвечать на сообщения
Вы не можете редактировать свои сообщения
Вы не можете удалять свои сообщения
Вы не можете голосовать в опросах
Вы не можете прикреплять файлы к сообщениям
Вы не можете скачивать файлы