Важное объявление!
У Нас Все раздачи мультитрекерные, при нуле пиров в релизах, можете смело вставать на закачку!
 
Автор Сообщение

HUNTER

Стаж:
4 года 4 месяца
Сообщений:
56839

Репутация: 101

[+] [-]
Вне форума [Профиль] [ЛС]

Клад / Дыры / Holes
Страна: США
Студия: Walt Disney Pictures, Walden Media и др.
Жанр: комедия, приключения, семейный
Год выпуска: 2003
Продолжительность: 01:57:24
Перевод: Профессиональный (дублированный) Невафильм
Перевод 2: Профессиональный (двухголосый закадровый)
Cубтитры: русские, английские
Оригинальная аудиодорожка: английский
Режиссер: Эндрю Дэвис / Andrew Davis
В ролях: Сигурни Уивер, Джон Войт, Тим Блейк Нельсон, Шайа ЛаБаф, Джэйк М. Смит, Байрон Коттон, Хлео Томас, Бренден Джеффресон, Мигель Кастро, Макс Кэш
Описание: На семье подростка по имени Стенли Илнетс лежит древнее проклятие. Все его предки по мужской линии были обречены попадать в самые невероятные жизненные переделки. Вот и Стенли получает срок в исправительном трудовом лагере «Зелёное озеро» за преступление, которое он не совершал. Администрация лагеря в лице хищной начальницы и жестокого старшего надзирателя заставляет своих подопечных ежедневно копать в пустыне странные ямы, называя это «трудовой терапией». Никто из этих ребят не знает, зачем на самом деле они роют все эти ямы…

Sample
Тип релиза: WEB-DL 1080p
Контейнер: MKV
Видео: MPEG4 AVC Video, 16:9, 1920x1036, 23,976 fps, 5168 kbps
Аудио: Russian (AC3, 6 ch, 448 kbps, 16 bits, 48.0 KHz) - Dub R5
Аудио 2: Russian (AC3, 6 ch, 448 kbps, 16 bits, 48.0 KHz) - Dvo
Аудио 3: English (AC3, 6 ch, 448 kbps, 16 bits, 48.0 KHz) - оригинал
Формат субтитров: softsub (SRT)
MediaInfo
Общее
Уникальный идентификатор : 171881011039149896697205885758916987626 (0x814F141F569DB930B1A1AD7080D30AEA)
Полное имя : E:\1\Holes 2003 Web-DL 1080p.mkv
Формат : Matroska
Версия формата : Version 4 / Version 2
Размер файла : 5,45 Гбайт
Продолжительность : 1 ч. 57 м.
Общий поток : 6644 Кбит/сек
Дата кодирования : UTC 2014-06-14 05:58:47
Программа кодирования : mkvmerge v6.1.0 ('Old Devil') built on Mar 2 2013 14:32:37
Библиотека кодирования : libebml v1.3.0 + libmatroska v1.4.0
Видео
Идентификатор : 1
Формат : AVC
Формат/Информация : Advanced Video Codec
Профиль формата : High@L4.0
Параметр CABAC формата : Да
Параметр ReFrames формата : 4 кадра
Идентификатор кодека : V_MPEG4/ISO/AVC
Продолжительность : 1 ч. 57 м.
Битрейт : 5168 Кбит/сек
Ширина : 1920 пикселей
Высота : 1036 пикселей
Соотношение сторон : 1,85:1
Режим частоты кадров : Постоянный
Частота кадров : 23,976 кадра/сек
Цветовое пространство : YUV
Субдискретизация насыщенности : 4:2:0
Битовая глубина : 8 бит
Тип развёртки : Прогрессивная
Бит/(Пиксели*Кадры) : 0.108
Размер потока : 4,24 Гбайт (78%)
Язык : English
Default : Да
Forced : Нет
Основные цвета : BT.709
Характеристики трансфера : BT.709
Коэффициенты матрицы : BT.709
Аудио #1
Идентификатор : 2
Формат : AC-3
Формат/Информация : Audio Coding 3
Расширение режима : CM (complete main)
Параметр Endianness формата : Big
Идентификатор кодека : A_AC3
Продолжительность : 1 ч. 57 м.
Вид битрейта : Постоянный
Битрейт : 448 Кбит/сек
Каналы : 6 каналов
Расположение каналов : Front: L C R, Side: L R, LFE
Частота : 48,0 КГц
Битовая глубина : 16 бит
Метод сжатия : С потерями
Размер потока : 376 Мбайт (7%)
Заголовок : dub
Язык : Russian
Default : Да
Forced : Нет
Аудио #2
Идентификатор : 3
Формат : AC-3
Формат/Информация : Audio Coding 3
Расширение режима : CM (complete main)
Параметр Endianness формата : Big
Идентификатор кодека : A_AC3
Продолжительность : 1 ч. 57 м.
Вид битрейта : Постоянный
Битрейт : 448 Кбит/сек
Каналы : 6 каналов
Расположение каналов : Front: L C R, Side: L R, LFE
Частота : 48,0 КГц
Битовая глубина : 16 бит
Метод сжатия : С потерями
Размер потока : 376 Мбайт (7%)
Заголовок : dvo
Язык : Russian
Default : Нет
Forced : Нет
Аудио #3
Идентификатор : 4
Формат : AC-3
Формат/Информация : Audio Coding 3
Расширение режима : CM (complete main)
Параметр Endianness формата : Big
Идентификатор кодека : A_AC3
Продолжительность : 1 ч. 57 м.
Вид битрейта : Постоянный
Битрейт : 448 Кбит/сек
Каналы : 6 каналов
Расположение каналов : Front: L C R, Side: L R, LFE
Частота : 48,0 КГц
Битовая глубина : 16 бит
Метод сжатия : С потерями
Размер потока : 376 Мбайт (7%)
Язык : English
Default : Нет
Forced : Нет
Текст #1
Идентификатор : 5
Формат : UTF-8
Идентификатор кодека : S_TEXT/UTF8
Идентификатор кодека/Информация : UTF-8 Plain Text
Язык : Russian
Default : Нет
Forced : Нет
Текст #2
Идентификатор : 6
Формат : UTF-8
Идентификатор кодека : S_TEXT/UTF8
Идентификатор кодека/Информация : UTF-8 Plain Text
Язык : English
Default : Нет
Forced : Нет
Скриншоты

_________________
Показать сообщения:    

Текущее время: Сегодня 23:15

Часовой пояс: GMT



Вы не можете начинать темы
Вы не можете отвечать на сообщения
Вы не можете редактировать свои сообщения
Вы не можете удалять свои сообщения
Вы не можете голосовать в опросах
Вы не можете прикреплять файлы к сообщениям
Вы не можете скачивать файлы