Важное объявление!
У Нас Все раздачи мультитрекерные, при нуле пиров в релизах, можете смело вставать на закачку!
 
Автор Сообщение

HUNTER

Стаж:
4 года 4 месяца
Сообщений:
56790

Репутация: 101

[+] [-]
Вне форума [Профиль] [ЛС]

Китаец / Der Chinese / The Man from Beijing-
Страна: Германия, Швеция, Австрия
Студия: Yellow Bird Pictures, Lotus Film, Yellow Bird Films
Жанр: Триллер, криминал
Год выпуска: 2011
Продолжительность: 03:04:43-Перевод: Любительский (многоголосый закадровый) [Trivor]
Cубтитры: английские
Оригинальная аудиодорожка: немецкий-Режиссер: Петер Кеглевич / Peter Keglevic-В ролях: Сюзанна фон Борсоди, Микаэл Нюквист, Клаудия Михельсен, Эми Чэн, Джэймс Таэнака, Йоахим Биссмайер, Рёланд Визнеккер, Аугуст Шмёльцер, Карлхайнц Хакль-Описание: У Виви Сандберг и ее коллег-полицейских перехватило дыхание, когда они увидели эту страшную картину: в маленькой шведской деревушке Хесьяваллен найдены зверски убитыми почти все ее жители — 19 человек. Бригитта Рослин, судья из Стокгольма тоже вскоре узнает это страшное известие — среди убитых ее родители. Она начинает собственное расследование, и след приводит ее в далекое прошлое…-Доп. информация:
- немецкую звуковую дорожку (2.0) заменил на русскую (кнопка в Меню - "2.0 Stereo");
- за исходный DVD9 спасибо edus67
- за русскую звуковую дорожку спасибо galilnahon
Бонусы: дополнительные материалы включают фильм о съемках и трейлер - все на немецком языке
Меню: есть, язык английский, анимированное, озвученное-Sample | IMDB | КиноПоиск-Тип релиза: DVD9 (Custom)
Контейнер: DVD-Video-Видео: NTSC 16:9 (720x480) VBR Auto Letterboxed
Аудио 1: AC3, 3/2+LFE ch, 384Kbps, Delay 0 mSec [Original_German]
Аудио 2: AC3, 2/0 ch, 192Kbps, Delay 0 mSec [Russian_MVO]-Релиз группы: -

Используемое ПО

1. BeLight - ac3 - wav;
2. Adobe Audition - синхронизация;
3. Minnetonka Audio Software - wav - ac3;

4. PgcDemux - разборка оригинального DVD;
5. MuxMan - сборка DVD;
6. DVDReMake Pro - финальный проект.

DVDInfo

Title:
Size: 6.48 Gb ( 6 791 712 KBytes ) - DVD-9
Enabled regions: 1, 2, 3, 4, 5, 6, 7, 8
VTS_01 :
Play Length: 03:04:43+01:32:28+01:32:26
Video: NTSC 16:9 (720x480) VBR, Auto Letterboxed
Audio:
Deutsch (Dolby AC3, 6 ch)
Russian (Dolby AC3, 2 ch)
Subtitles:
English
VTS_02 :
Play Length: 00:01:02
Video: NTSC 16:9 (720x480) VBR, Auto Letterboxed
Audio:
English (Dolby AC3, 2 ch)
Subtitles:
English
VTS_03 :
Play Length: 00:00:01
Video: NTSC 16:9 (720x480) VBR, Auto Letterboxed
Audio:
English (Dolby AC3, 2 ch)
Subtitles:
English
VTS_04 :
Play Length: 00:15:55
Video: NTSC 16:9 (720x480) VBR, Auto Letterboxed
Audio:
Deutsch (Dolby AC3, 2 ch)
Subtitles:
English
Menu Video:
NTSC 16:9 (720x480) VBR
Auto Letterboxed
Menu Subtitles:
Not specified
Menu English Language Unit :
Root Menu

MediaInfo

General
Complete name : D:\Мои релизы\Der Chinese [DVD9]\VIDEO_TS\VIDEO_TS.BUP
Format : DVD Video
Format profile : Menu
File size : 16.0 KiB
Video
ID : 224 (0xE0)
Format : MPEG Video
Format version : Version 2
Bit rate mode : Variable
Width : 720 pixels
Height : 480 pixels
Display aspect ratio : 16:9
Frame rate : 29.970 fps
Standard : NTSC
Compression mode : Lossy
Text
Format : RLE
Format/Info : Run-length encoding
Bit depth : 2 bits
General
Complete name : D:\Мои релизы\Der Chinese [DVD9]\VIDEO_TS\VIDEO_TS.IFO
Format : DVD Video
Format profile : Menu
File size : 16.0 KiB
Video
ID : 224 (0xE0)
Format : MPEG Video
Format version : Version 2
Bit rate mode : Variable
Width : 720 pixels
Height : 480 pixels
Display aspect ratio : 16:9
Frame rate : 29.970 fps
Standard : NTSC
Compression mode : Lossy
Text
Format : RLE
Format/Info : Run-length encoding
Bit depth : 2 bits
General
Complete name : D:\Мои релизы\Der Chinese [DVD9]\VIDEO_TS\VIDEO_TS.VOB
Format : MPEG-PS
File size : 30.0 KiB
Duration : 33ms
Overall bit rate : 7 447 Kbps
Video
ID : 224 (0xE0)
Format : MPEG Video
Format version : Version 2
Format profile : Main@Main
Format settings, BVOP : No
Format settings, Matrix : Default
Format settings, GOP : N=1
Duration : 33ms
Bit rate mode : Variable
Bit rate : 4 587 Kbps
Width : 720 pixels
Height : 480 pixels
Display aspect ratio : 16:9
Frame rate : 29.970 fps
Standard : NTSC
Color space : YUV
Chroma subsampling : 4:2:0
Bit depth : 8 bits
Scan type : Progressive
Scan order : Top Field First
Compression mode : Lossy
Bits/(Pixel*Frame) : 0.443
Stream size : 18.5 KiB (62%)
Menu
General
Complete name : D:\Мои релизы\Der Chinese [DVD9]\VIDEO_TS\VTS_01_0.BUP
Format : DVD Video
Format profile : Program
File size : 126 KiB
Duration : 3h 4mn
Overall bit rate : 93 bps
Video
ID : 224 (0xE0)
Format : MPEG Video
Format version : Version 2
Duration : 3h 4mn
Bit rate mode : Variable
Width : 720 pixels
Height : 480 pixels
Display aspect ratio : 16:9
Frame rate : 29.970 fps
Standard : NTSC
Compression mode : Lossy
Audio #1
ID : 128 (0x80)
Format : AC-3
Format/Info : Audio Coding 3
Duration : 3h 4mn
Channel(s) : 6 channels
Sampling rate : 48.0 KHz
Compression mode : Lossy
Language : German
Audio #2
ID : 129 (0x81)
Format : AC-3
Format/Info : Audio Coding 3
Duration : 3h 4mn
Channel(s) : 2 channels
Sampling rate : 48.0 KHz
Compression mode : Lossy
Language : Russian
Text
ID : 32 (0x20)
Format : RLE
Format/Info : Run-length encoding
Bit depth : 2 bits
Language : English
Menu #1
Duration : 3h 4mn
00:00:00.000 : Chapter 1
00:06:14.466 : Chapter 2
00:17:18.932 : Chapter 3
00:24:01.465 : Chapter 4
00:31:20.365 : Chapter 5
00:37:44.031 : Chapter 6
00:48:04.131 : Chapter 7
00:54:38.931 : Chapter 8
01:02:31.997 : Chapter 9
01:09:37.830 : Chapter 10
01:18:07.263 : Chapter 11
01:24:16.029 : Chapter 12
01:31:45.295 : Chapter 13
01:32:28.295 : Chapter 14
01:43:24.361 : Chapter 15
01:51:09.527 : Chapter 16
01:56:49.527 : Chapter 17
02:03:12.727 : Chapter 18
02:09:47.160 : Chapter 19
02:16:11.226 : Chapter 20
02:22:12.526 : Chapter 21
02:31:02.692 : Chapter 22
02:38:53.625 : Chapter 23
02:47:53.625 : Chapter 24
02:56:10.358 : Chapter 25
03:04:08.391 : Chapter 26
03:04:43.424 : Chapter 27
List (Audio) : 0 / 1
List (Subtitles 4/3) : 0
List (Subtitles Wide) : 0
List (Subtitles Letterbox) : 0
List (Subtitles Pan&Scan) : 0
Menu #2
Duration : 1h 32mn
00:00:00.000 : Chapter 1
00:06:14.466 : Chapter 2
00:17:18.932 : Chapter 3
00:24:01.465 : Chapter 4
00:31:20.365 : Chapter 5
00:37:44.031 : Chapter 6
00:48:04.131 : Chapter 7
00:54:38.931 : Chapter 8
01:02:31.997 : Chapter 9
01:09:37.830 : Chapter 10
01:18:07.263 : Chapter 11
01:24:16.029 : Chapter 12
01:31:45.295 : Chapter 13
01:32:28.295 : Chapter 14
List (Audio) : 0 / 1
List (Subtitles 4/3) : 0
List (Subtitles Wide) : 0
List (Subtitles Letterbox) : 0
List (Subtitles Pan&Scan) : 0
Menu #3
Duration : 1h 32mn
00:00:00.000 : Chapter 1
00:11:07.099 : Chapter 2
00:18:52.265 : Chapter 3
00:24:32.265 : Chapter 4
00:30:55.465 : Chapter 5
00:37:29.898 : Chapter 6
00:43:53.964 : Chapter 7
00:49:55.264 : Chapter 8
00:58:45.430 : Chapter 9
01:06:36.363 : Chapter 10
01:15:36.363 : Chapter 11
01:23:53.096 : Chapter 12
01:31:51.129 : Chapter 13
01:32:26.162 : Chapter 14
List (Audio) : 0 / 1
List (Subtitles 4/3) : 0
List (Subtitles Wide) : 0
List (Subtitles Letterbox) : 0
List (Subtitles Pan&Scan) : 0
General
Complete name : D:\Мои релизы\Der Chinese [DVD9]\VIDEO_TS\VTS_01_0.IFO
Format : DVD Video
Format profile : Program
File size : 126 KiB
Duration : 3h 4mn
Overall bit rate : 93 bps
Video
ID : 224 (0xE0)
Format : MPEG Video
Format version : Version 2
Duration : 3h 4mn
Bit rate mode : Variable
Width : 720 pixels
Height : 480 pixels
Display aspect ratio : 16:9
Frame rate : 29.970 fps
Standard : NTSC
Compression mode : Lossy
Audio #1
ID : 128 (0x80)
Format : AC-3
Format/Info : Audio Coding 3
Duration : 3h 4mn
Channel(s) : 6 channels
Sampling rate : 48.0 KHz
Compression mode : Lossy
Language : German
Audio #2
ID : 129 (0x81)
Format : AC-3
Format/Info : Audio Coding 3
Duration : 3h 4mn
Channel(s) : 2 channels
Sampling rate : 48.0 KHz
Compression mode : Lossy
Language : Russian
Text
ID : 32 (0x20)
Format : RLE
Format/Info : Run-length encoding
Bit depth : 2 bits
Language : English
Menu #1
Duration : 3h 4mn
00:00:00.000 : Chapter 1
00:06:14.466 : Chapter 2
00:17:18.932 : Chapter 3
00:24:01.465 : Chapter 4
00:31:20.365 : Chapter 5
00:37:44.031 : Chapter 6
00:48:04.131 : Chapter 7
00:54:38.931 : Chapter 8
01:02:31.997 : Chapter 9
01:09:37.830 : Chapter 10
01:18:07.263 : Chapter 11
01:24:16.029 : Chapter 12
01:31:45.295 : Chapter 13
01:32:28.295 : Chapter 14
01:43:24.361 : Chapter 15
01:51:09.527 : Chapter 16
01:56:49.527 : Chapter 17
02:03:12.727 : Chapter 18
02:09:47.160 : Chapter 19
02:16:11.226 : Chapter 20
02:22:12.526 : Chapter 21
02:31:02.692 : Chapter 22
02:38:53.625 : Chapter 23
02:47:53.625 : Chapter 24
02:56:10.358 : Chapter 25
03:04:08.391 : Chapter 26
03:04:43.424 : Chapter 27
List (Audio) : 0 / 1
List (Subtitles 4/3) : 0
List (Subtitles Wide) : 0
List (Subtitles Letterbox) : 0
List (Subtitles Pan&Scan) : 0
Menu #2
Duration : 1h 32mn
00:00:00.000 : Chapter 1
00:06:14.466 : Chapter 2
00:17:18.932 : Chapter 3
00:24:01.465 : Chapter 4
00:31:20.365 : Chapter 5
00:37:44.031 : Chapter 6
00:48:04.131 : Chapter 7
00:54:38.931 : Chapter 8
01:02:31.997 : Chapter 9
01:09:37.830 : Chapter 10
01:18:07.263 : Chapter 11
01:24:16.029 : Chapter 12
01:31:45.295 : Chapter 13
01:32:28.295 : Chapter 14
List (Audio) : 0 / 1
List (Subtitles 4/3) : 0
List (Subtitles Wide) : 0
List (Subtitles Letterbox) : 0
List (Subtitles Pan&Scan) : 0
Menu #3
Duration : 1h 32mn
00:00:00.000 : Chapter 1
00:11:07.099 : Chapter 2
00:18:52.265 : Chapter 3
00:24:32.265 : Chapter 4
00:30:55.465 : Chapter 5
00:37:29.898 : Chapter 6
00:43:53.964 : Chapter 7
00:49:55.264 : Chapter 8
00:58:45.430 : Chapter 9
01:06:36.363 : Chapter 10
01:15:36.363 : Chapter 11
01:23:53.096 : Chapter 12
01:31:51.129 : Chapter 13
01:32:26.162 : Chapter 14
List (Audio) : 0 / 1
List (Subtitles 4/3) : 0
List (Subtitles Wide) : 0
List (Subtitles Letterbox) : 0
List (Subtitles Pan&Scan) : 0
General
Complete name : D:\Мои релизы\Der Chinese [DVD9]\VIDEO_TS\VTS_01_0.VOB
Format : MPEG-PS
File size : 34.9 MiB
Duration : 40s 107ms
Overall bit rate : 7 300 Kbps
Video
ID : 224 (0xE0)
Format : MPEG Video
Format version : Version 2
Format profile : Main@Main
Format settings, BVOP : Yes
Format settings, Matrix : Default
Duration : 40s 107ms
Bit rate mode : Variable
Bit rate : 6 930 Kbps
Width : 720 pixels
Height : 480 pixels
Display aspect ratio : 16:9
Frame rate : 29.970 fps
Standard : NTSC
Color space : YUV
Chroma subsampling : 4:2:0
Bit depth : 8 bits
Scan type : Progressive
Compression mode : Lossy
Bits/(Pixel*Frame) : 0.669
Stream size : 33.1 MiB (95%)
Audio
ID : 128 (0x80)
Format : AC-3
Format/Info : Audio Coding 3
Mode extension : CM (complete main)
Duration : 40s 64ms
Bit rate mode : Constant
Bit rate : 224 Kbps
Channel(s) : 2 channels
Channel positions : Front: L R
Sampling rate : 48.0 KHz
Bit depth : 16 bits
Compression mode : Lossy
Stream size : 1.07 MiB (3%)
Text #1
ID : 32 (0x20)
Format : RLE
Format/Info : Run-length encoding
Text #2
ID : 33 (0x21)
Format : RLE
Format/Info : Run-length encoding
Menu
General
Complete name : D:\Мои релизы\Der Chinese [DVD9]\VIDEO_TS\VTS_01_1.VOB
Format : MPEG-PS
File size : 1 024 MiB
Duration : 31mn 12s
Overall bit rate : 4 588 Kbps
Video
ID : 224 (0xE0)
Format : MPEG Video
Format version : Version 2
Format profile : Main@Main
Format settings, BVOP : Yes
Format settings, Matrix : Default
Format settings, GOP : M=2, N=12
Duration : 31mn 12s
Bit rate mode : Variable
Bit rate : 3 920 Kbps
Nominal bit rate : 9 800 Kbps
Width : 720 pixels
Height : 480 pixels
Display aspect ratio : 16:9
Frame rate : 23.976 fps
Standard : NTSC
Color space : YUV
Chroma subsampling : 4:2:0
Bit depth : 8 bits
Scan type : Progressive
Scan order : 2:3 Pulldown
Compression mode : Lossy
Bits/(Pixel*Frame) : 0.473
Stream size : 875 MiB (85%)
Audio #1
ID : 128 (0x80)
Format : AC-3
Format/Info : Audio Coding 3
Mode extension : CM (complete main)
Duration : 31mn 12s
Bit rate mode : Constant
Bit rate : 384 Kbps
Channel(s) : 6 channels
Channel positions : Front: L C R, Side: L R, LFE
Sampling rate : 48.0 KHz
Bit depth : 16 bits
Compression mode : Lossy
Stream size : 85.7 MiB (8%)
Audio #2
ID : 129 (0x81)
Format : AC-3
Format/Info : Audio Coding 3
Mode extension : CM (complete main)
Duration : 31mn 12s
Bit rate mode : Constant
Bit rate : 192 Kbps
Channel(s) : 2 channels
Channel positions : Front: L R
Sampling rate : 48.0 KHz
Bit depth : 16 bits
Compression mode : Lossy
Stream size : 42.9 MiB (4%)
Text
ID : 32 (0x20)
Format : RLE
Format/Info : Run-length encoding
Video delay : 800ms
Menu
General
Complete name : D:\Мои релизы\Der Chinese [DVD9]\VIDEO_TS\VTS_01_2.VOB
Format : MPEG-PS
File size : 1 024 MiB
Duration : 31mn 1s
Overall bit rate : 4 615 Kbps
Video
ID : 224 (0xE0)
Format : MPEG Video
Format version : Version 2
Format profile : Main@Main
Format settings, BVOP : Yes
Format settings, Matrix : Default
Format settings, GOP : M=2, N=12
Duration : 31mn 1s
Bit rate mode : Variable
Bit rate : 3 947 Kbps
Nominal bit rate : 9 800 Kbps
Width : 720 pixels
Height : 480 pixels
Display aspect ratio : 16:9
Frame rate : 23.976 fps
Standard : NTSC
Color space : YUV
Chroma subsampling : 4:2:0
Bit depth : 8 bits
Scan type : Progressive
Scan order : 2:3 Pulldown
Compression mode : Lossy
Bits/(Pixel*Frame) : 0.476
Stream size : 876 MiB (86%)
Audio #1
ID : 128 (0x80)
Format : AC-3
Format/Info : Audio Coding 3
Mode extension : CM (complete main)
Duration : 31mn 1s
Bit rate mode : Constant
Bit rate : 384 Kbps
Channel(s) : 6 channels
Channel positions : Front: L C R, Side: L R, LFE
Sampling rate : 48.0 KHz
Bit depth : 16 bits
Compression mode : Lossy
Video delay : -261ms
Stream size : 85.2 MiB (8%)
Audio #2
ID : 129 (0x81)
Format : AC-3
Format/Info : Audio Coding 3
Mode extension : CM (complete main)
Duration : 31mn 1s
Bit rate mode : Constant
Bit rate : 192 Kbps
Channel(s) : 2 channels
Channel positions : Front: L R
Sampling rate : 48.0 KHz
Bit depth : 16 bits
Compression mode : Lossy
Video delay : -261ms
Stream size : 42.6 MiB (4%)
Text
ID : 32 (0x20)
Format : RLE
Format/Info : Run-length encoding
Menu
General
Complete name : D:\Мои релизы\Der Chinese [DVD9]\VIDEO_TS\VTS_01_3.VOB
Format : MPEG-PS
File size : 1 024 MiB
Duration : 31mn 6s
Overall bit rate : 4 602 Kbps
Video
ID : 224 (0xE0)
Format : MPEG Video
Format version : Version 2
Format profile : Main@Main
Format settings, BVOP : Yes
Format settings, Matrix : Default
Duration : 31mn 6s
Bit rate mode : Variable
Bit rate : 3 935 Kbps
Nominal bit rate : 9 800 Kbps
Width : 720 pixels
Height : 480 pixels
Display aspect ratio : 16:9
Frame rate : 23.976 fps
Standard : NTSC
Color space : YUV
Chroma subsampling : 4:2:0
Bit depth : 8 bits
Scan type : Progressive
Scan order : 2:3 Pulldown
Compression mode : Lossy
Bits/(Pixel*Frame) : 0.475
Stream size : 875 MiB (85%)
Audio #1
ID : 128 (0x80)
Format : AC-3
Format/Info : Audio Coding 3
Mode extension : CM (complete main)
Duration : 31mn 6s
Bit rate mode : Constant
Bit rate : 384 Kbps
Channel(s) : 6 channels
Channel positions : Front: L C R, Side: L R, LFE
Sampling rate : 48.0 KHz
Bit depth : 16 bits
Compression mode : Lossy
Video delay : -618ms
Stream size : 85.4 MiB (8%)
Audio #2
ID : 129 (0x81)
Format : AC-3
Format/Info : Audio Coding 3
Mode extension : CM (complete main)
Duration : 31mn 6s
Bit rate mode : Constant
Bit rate : 192 Kbps
Channel(s) : 2 channels
Channel positions : Front: L R
Sampling rate : 48.0 KHz
Bit depth : 16 bits
Compression mode : Lossy
Video delay : -522ms
Stream size : 42.7 MiB (4%)
Text
ID : 32 (0x20)
Format : RLE
Format/Info : Run-length encoding
Duration : 31mn 0s
Video delay : 2s 502ms
Menu
General
Complete name : D:\Мои релизы\Der Chinese [DVD9]\VIDEO_TS\VTS_01_4.VOB
Format : MPEG-PS
File size : 1 024 MiB
Duration : 31mn 4s
Overall bit rate : 4 606 Kbps
Video
ID : 224 (0xE0)
Format : MPEG Video
Format version : Version 2
Format profile : Main@Main
Format settings, BVOP : Yes
Format settings, Matrix : Default
Duration : 31mn 4s
Bit rate mode : Variable
Bit rate : 3 938 Kbps
Nominal bit rate : 9 800 Kbps
Width : 720 pixels
Height : 480 pixels
Display aspect ratio : 16:9
Frame rate : 23.976 fps
Standard : NTSC
Color space : YUV
Chroma subsampling : 4:2:0
Bit depth : 8 bits
Scan type : Progressive
Scan order : 2:3 Pulldown
Compression mode : Lossy
Bits/(Pixel*Frame) : 0.475
Stream size : 875 MiB (85%)
Audio #1
ID : 128 (0x80)
Format : AC-3
Format/Info : Audio Coding 3
Mode extension : CM (complete main)
Duration : 31mn 4s
Bit rate mode : Constant
Bit rate : 384 Kbps
Channel(s) : 6 channels
Channel positions : Front: L C R, Side: L R, LFE
Sampling rate : 48.0 KHz
Bit depth : 16 bits
Compression mode : Lossy
Video delay : -550ms
Stream size : 85.4 MiB (8%)
Audio #2
ID : 129 (0x81)
Format : AC-3
Format/Info : Audio Coding 3
Mode extension : CM (complete main)
Duration : 31mn 4s
Bit rate mode : Constant
Bit rate : 192 Kbps
Channel(s) : 2 channels
Channel positions : Front: L R
Sampling rate : 48.0 KHz
Bit depth : 16 bits
Compression mode : Lossy
Video delay : -486ms
Stream size : 42.7 MiB (4%)
Text
ID : 32 (0x20)
Format : RLE
Format/Info : Run-length encoding
Duration : 31mn 0s
Video delay : 3s 136ms
Menu
General
Complete name : D:\Мои релизы\Der Chinese [DVD9]\VIDEO_TS\VTS_01_5.VOB
Format : MPEG-PS
File size : 1 024 MiB
Duration : 31mn 4s
Overall bit rate : 4 607 Kbps
Video
ID : 224 (0xE0)
Format : MPEG Video
Format version : Version 2
Format profile : Main@Main
Format settings, BVOP : Yes
Format settings, Matrix : Default
Format settings, GOP : M=2, N=12
Duration : 31mn 4s
Bit rate mode : Variable
Bit rate : 3 939 Kbps
Nominal bit rate : 9 800 Kbps
Width : 720 pixels
Height : 480 pixels
Display aspect ratio : 16:9
Frame rate : 23.976 fps
Standard : NTSC
Color space : YUV
Chroma subsampling : 4:2:0
Bit depth : 8 bits
Scan type : Progressive
Scan order : 2:3 Pulldown
Compression mode : Lossy
Bits/(Pixel*Frame) : 0.475
Stream size : 875 MiB (85%)
Audio #1
ID : 128 (0x80)
Format : AC-3
Format/Info : Audio Coding 3
Mode extension : CM (complete main)
Duration : 31mn 4s
Bit rate mode : Constant
Bit rate : 384 Kbps
Channel(s) : 6 channels
Channel positions : Front: L C R, Side: L R, LFE
Sampling rate : 48.0 KHz
Bit depth : 16 bits
Compression mode : Lossy
Video delay : -504ms
Stream size : 85.4 MiB (8%)
Audio #2
ID : 129 (0x81)
Format : AC-3
Format/Info : Audio Coding 3
Mode extension : CM (complete main)
Duration : 31mn 4s
Bit rate mode : Constant
Bit rate : 192 Kbps
Channel(s) : 2 channels
Channel positions : Front: L R
Sampling rate : 48.0 KHz
Bit depth : 16 bits
Compression mode : Lossy
Video delay : -440ms
Stream size : 42.7 MiB (4%)
Text
ID : 32 (0x20)
Format : RLE
Format/Info : Run-length encoding
Duration : 30mn 58s
Video delay : 2s 986ms
Menu
General
Complete name : D:\Мои релизы\Der Chinese [DVD9]\VIDEO_TS\VTS_01_6.VOB
Format : MPEG-PS
File size : 969 MiB
Duration : 29mn 24s
Overall bit rate : 4 608 Kbps
Video
ID : 224 (0xE0)
Format : MPEG Video
Format version : Version 2
Format profile : Main@Main
Format settings, BVOP : Yes
Format settings, Matrix : Default
Format settings, GOP : M=2, N=12
Duration : 29mn 24s
Bit rate mode : Variable
Bit rate : 3 940 Kbps
Nominal bit rate : 9 800 Kbps
Width : 720 pixels
Height : 480 pixels
Display aspect ratio : 16:9
Frame rate : 23.976 fps
Standard : NTSC
Color space : YUV
Chroma subsampling : 4:2:0
Bit depth : 8 bits
Scan type : Progressive
Scan order : 2:3 Pulldown
Compression mode : Lossy
Bits/(Pixel*Frame) : 0.476
Stream size : 829 MiB (85%)
Audio #1
ID : 128 (0x80)
Format : AC-3
Format/Info : Audio Coding 3
Mode extension : CM (complete main)
Duration : 29mn 24s
Bit rate mode : Constant
Bit rate : 384 Kbps
Channel(s) : 6 channels
Channel positions : Front: L C R, Side: L R, LFE
Sampling rate : 48.0 KHz
Bit depth : 16 bits
Compression mode : Lossy
Video delay : -630ms
Stream size : 80.8 MiB (8%)
Audio #2
ID : 129 (0x81)
Format : AC-3
Format/Info : Audio Coding 3
Mode extension : CM (complete main)
Duration : 29mn 24s
Bit rate mode : Constant
Bit rate : 192 Kbps
Channel(s) : 2 channels
Channel positions : Front: L R
Sampling rate : 48.0 KHz
Bit depth : 16 bits
Compression mode : Lossy
Video delay : -598ms
Stream size : 40.4 MiB (4%)
Text
ID : 32 (0x20)
Format : RLE
Format/Info : Run-length encoding
Video delay : 1s 785ms
Menu
General
Complete name : D:\Мои релизы\Der Chinese [DVD9]\VIDEO_TS\VTS_02_0.BUP
Format : DVD Video
Format profile : Program
File size : 18.0 KiB
Duration : 1mn 2s
Overall bit rate : 2 365 bps
Video
ID : 224 (0xE0)
Format : MPEG Video
Format version : Version 2
Duration : 1mn 2s
Bit rate mode : Variable
Width : 720 pixels
Height : 480 pixels
Display aspect ratio : 16:9
Frame rate : 29.970 fps
Standard : NTSC
Compression mode : Lossy
Audio
ID : 128 (0x80)
Format : AC-3
Format/Info : Audio Coding 3
Duration : 1mn 2s
Channel(s) : 2 channels
Sampling rate : 48.0 KHz
Compression mode : Lossy
Language : English
Text
ID : 32 (0x20)
Format : RLE
Format/Info : Run-length encoding
Bit depth : 2 bits
Language : English
Menu
Duration : 1mn 2s
00:00:00.000 : Chapter 1
00:01:01.833 : Chapter 2
List (Audio) : 0
List (Subtitles 4/3) : 0
List (Subtitles Wide) : 0
List (Subtitles Letterbox) : 0
List (Subtitles Pan&Scan) : 0
General
Complete name : D:\Мои релизы\Der Chinese [DVD9]\VIDEO_TS\VTS_02_0.IFO
Format : DVD Video
Format profile : Program
File size : 18.0 KiB
Duration : 1mn 2s
Overall bit rate : 2 365 bps
Video
ID : 224 (0xE0)
Format : MPEG Video
Format version : Version 2
Duration : 1mn 2s
Bit rate mode : Variable
Width : 720 pixels
Height : 480 pixels
Display aspect ratio : 16:9
Frame rate : 29.970 fps
Standard : NTSC
Compression mode : Lossy
Audio
ID : 128 (0x80)
Format : AC-3
Format/Info : Audio Coding 3
Duration : 1mn 2s
Channel(s) : 2 channels
Sampling rate : 48.0 KHz
Compression mode : Lossy
Language : English
Text
ID : 32 (0x20)
Format : RLE
Format/Info : Run-length encoding
Bit depth : 2 bits
Language : English
Menu
Duration : 1mn 2s
00:00:00.000 : Chapter 1
00:01:01.833 : Chapter 2
List (Audio) : 0
List (Subtitles 4/3) : 0
List (Subtitles Wide) : 0
List (Subtitles Letterbox) : 0
List (Subtitles Pan&Scan) : 0
General
Complete name : D:\Мои релизы\Der Chinese [DVD9]\VIDEO_TS\VTS_02_0.VOB
Format : MPEG-PS
File size : 8.00 KiB
Duration : 33ms
Overall bit rate : 1 986 Kbps
Video
ID : 224 (0xE0)
Format : MPEG Video
Format version : Version 2
Format profile : Main@Main
Format settings, BVOP : No
Format settings, Matrix : Default
Duration : 33ms
Bit rate mode : Constant
Bit rate : 8 000 Kbps
Width : 720 pixels
Height : 480 pixels
Display aspect ratio : 16:9
Frame rate : 29.970 fps
Standard : NTSC
Color space : YUV
Chroma subsampling : 4:2:0
Bit depth : 8 bits
Scan type : Progressive
Scan order : Top Field First
Compression mode : Lossy
Bits/(Pixel*Frame) : 0.772
Stream size : 32.2 KiB
Menu
General
Complete name : D:\Мои релизы\Der Chinese [DVD9]\VIDEO_TS\VTS_02_1.VOB
Format : MPEG-PS
File size : 39.2 MiB
Duration : 1mn 1s
Overall bit rate : 5 316 Kbps
Video
ID : 224 (0xE0)
Format : MPEG Video
Format version : Version 2
Format profile : Main@Main
Format settings, BVOP : Yes
Format settings, Matrix : Default
Format settings, GOP : M=2, N=12
Duration : 33ms
Bit rate mode : Variable
Bit rate : 4 986 Kbps
Nominal bit rate : 9 800 Kbps
Width : 720 pixels
Height : 480 pixels
Display aspect ratio : 16:9
Frame rate : 23.976 fps
Standard : NTSC
Color space : YUV
Chroma subsampling : 4:2:0
Bit depth : 8 bits
Scan type : Progressive
Scan order : 2:3 Pulldown
Compression mode : Lossy
Bits/(Pixel*Frame) : 0.602
Stream size : 20.1 KiB (0%)
Audio
ID : 128 (0x80)
Format : AC-3
Format/Info : Audio Coding 3
Mode extension : CM (complete main)
Duration : 1mn 1s
Bit rate mode : Constant
Bit rate : 224 Kbps
Channel(s) : 2 channels
Channel positions : Front: L R
Sampling rate : 48.0 KHz
Bit depth : 16 bits
Compression mode : Lossy
Stream size : 1.65 MiB (4%)
Text
ID : 32 (0x20)
Format : RLE
Format/Info : Run-length encoding
Video delay : 1s 468ms
Menu
General
Complete name : D:\Мои релизы\Der Chinese [DVD9]\VIDEO_TS\VTS_03_0.BUP
Format : DVD Video
Format profile : Program
File size : 18.0 KiB
Duration : 1s 0ms
Overall bit rate : 147 Kbps
Video
ID : 224 (0xE0)
Format : MPEG Video
Format version : Version 2
Duration : 1s 1ms
Bit rate mode : Variable
Width : 720 pixels
Height : 480 pixels
Display aspect ratio : 16:9
Frame rate : 29.970 fps
Standard : NTSC
Compression mode : Lossy
Audio
ID : 128 (0x80)
Format : AC-3
Format/Info : Audio Coding 3
Duration : 1s 0ms
Channel(s) : 2 channels
Sampling rate : 48.0 KHz
Compression mode : Lossy
Language : English
Text
ID : 32 (0x20)
Format : RLE
Format/Info : Run-length encoding
Bit depth : 2 bits
Language : English
Menu #1
Duration : 1s 0ms
00:00:00.000 : Chapter 1
00:00:00.500 : Chapter 2
List (Audio) : 0
List (Subtitles 4/3) : 0
List (Subtitles Wide) : 0
List (Subtitles Letterbox) : 0
List (Subtitles Pan&Scan) : 0
Menu #2
Duration : 500ms
00:00:00.000 : Chapter 1
List (Audio) : 0
List (Subtitles 4/3) : 0
List (Subtitles Wide) : 0
List (Subtitles Letterbox) : 0
List (Subtitles Pan&Scan) : 0
Menu #3
General
Complete name : D:\Мои релизы\Der Chinese [DVD9]\VIDEO_TS\VTS_03_0.IFO
Format : DVD Video
Format profile : Program
File size : 18.0 KiB
Duration : 1s 0ms
Overall bit rate : 147 Kbps
Video
ID : 224 (0xE0)
Format : MPEG Video
Format version : Version 2
Duration : 1s 1ms
Bit rate mode : Variable
Width : 720 pixels
Height : 480 pixels
Display aspect ratio : 16:9
Frame rate : 29.970 fps
Standard : NTSC
Compression mode : Lossy
Audio
ID : 128 (0x80)
Format : AC-3
Format/Info : Audio Coding 3
Duration : 1s 0ms
Channel(s) : 2 channels
Sampling rate : 48.0 KHz
Compression mode : Lossy
Language : English
Text
ID : 32 (0x20)
Format : RLE
Format/Info : Run-length encoding
Bit depth : 2 bits
Language : English
Menu #1
Duration : 1s 0ms
00:00:00.000 : Chapter 1
00:00:00.500 : Chapter 2
List (Audio) : 0
List (Subtitles 4/3) : 0
List (Subtitles Wide) : 0
List (Subtitles Letterbox) : 0
List (Subtitles Pan&Scan) : 0
Menu #2
Duration : 500ms
00:00:00.000 : Chapter 1
List (Audio) : 0
List (Subtitles 4/3) : 0
List (Subtitles Wide) : 0
List (Subtitles Letterbox) : 0
List (Subtitles Pan&Scan) : 0
Menu #3
General
Complete name : D:\Мои релизы\Der Chinese [DVD9]\VIDEO_TS\VTS_03_0.VOB
Format : MPEG-PS
File size : 8.00 KiB
Duration : 33ms
Overall bit rate : 1 986 Kbps
Video
ID : 224 (0xE0)
Format : MPEG Video
Format version : Version 2
Format profile : Main@Main
Format settings, BVOP : No
Format settings, Matrix : Default
Duration : 33ms
Bit rate mode : Constant
Bit rate : 8 000 Kbps
Width : 720 pixels
Height : 480 pixels
Display aspect ratio : 16:9
Frame rate : 29.970 fps
Standard : NTSC
Color space : YUV
Chroma subsampling : 4:2:0
Bit depth : 8 bits
Scan type : Progressive
Scan order : Top Field First
Compression mode : Lossy
Bits/(Pixel*Frame) : 0.772
Stream size : 32.2 KiB
Menu
General
Complete name : D:\Мои релизы\Der Chinese [DVD9]\VIDEO_TS\VTS_03_1.VOB
Format : MPEG-PS
File size : 30.0 KiB
Duration : 33ms
Overall bit rate : 7 447 Kbps
Video
ID : 224 (0xE0)
Format : MPEG Video
Format version : Version 2
Format profile : Main@Main
Format settings, BVOP : No
Format settings, Matrix : Default
Format settings, GOP : N=1
Duration : 33ms
Bit rate mode : Variable
Bit rate : 4 587 Kbps
Width : 720 pixels
Height : 480 pixels
Display aspect ratio : 16:9
Frame rate : 29.970 fps
Standard : NTSC
Color space : YUV
Chroma subsampling : 4:2:0
Bit depth : 8 bits
Scan type : Progressive
Scan order : Top Field First
Compression mode : Lossy
Bits/(Pixel*Frame) : 0.443
Stream size : 18.5 KiB (62%)
Menu
General
Complete name : D:\Мои релизы\Der Chinese [DVD9]\VIDEO_TS\VTS_04_0.BUP
Format : DVD Video
Format profile : Program
File size : 26.0 KiB
Duration : 15mn 55s
Overall bit rate : 223 bps
Video
ID : 224 (0xE0)
Format : MPEG Video
Format version : Version 2
Duration : 15mn 54s
Bit rate mode : Variable
Width : 720 pixels
Height : 480 pixels
Display aspect ratio : 16:9
Frame rate : 29.970 fps
Standard : NTSC
Compression mode : Lossy
Audio
ID : 128 (0x80)
Format : AC-3
Format/Info : Audio Coding 3
Duration : 15mn 55s
Channel(s) : 2 channels
Sampling rate : 48.0 KHz
Compression mode : Lossy
Language : German
Text
ID : 32 (0x20)
Format : RLE
Format/Info : Run-length encoding
Bit depth : 2 bits
Language : English
Menu
Duration : 15mn 55s
00:00:00.000 : Chapter 1
00:05:06.500 : Chapter 2
00:09:45.066 : Chapter 3
00:15:05.432 : Chapter 4
00:15:54.498 : Chapter 5
List (Audio) : 0
List (Subtitles 4/3) : 0
List (Subtitles Wide) : 0
List (Subtitles Letterbox) : 0
List (Subtitles Pan&Scan) : 0
General
Complete name : D:\Мои релизы\Der Chinese [DVD9]\VIDEO_TS\VTS_04_0.IFO
Format : DVD Video
Format profile : Program
File size : 26.0 KiB
Duration : 15mn 55s
Overall bit rate : 223 bps
Video
ID : 224 (0xE0)
Format : MPEG Video
Format version : Version 2
Duration : 15mn 54s
Bit rate mode : Variable
Width : 720 pixels
Height : 480 pixels
Display aspect ratio : 16:9
Frame rate : 29.970 fps
Standard : NTSC
Compression mode : Lossy
Audio
ID : 128 (0x80)
Format : AC-3
Format/Info : Audio Coding 3
Duration : 15mn 55s
Channel(s) : 2 channels
Sampling rate : 48.0 KHz
Compression mode : Lossy
Language : German
Text
ID : 32 (0x20)
Format : RLE
Format/Info : Run-length encoding
Bit depth : 2 bits
Language : English
Menu
Duration : 15mn 55s
00:00:00.000 : Chapter 1
00:05:06.500 : Chapter 2
00:09:45.066 : Chapter 3
00:15:05.432 : Chapter 4
00:15:54.498 : Chapter 5
List (Audio) : 0
List (Subtitles 4/3) : 0
List (Subtitles Wide) : 0
List (Subtitles Letterbox) : 0
List (Subtitles Pan&Scan) : 0
General
Complete name : D:\Мои релизы\Der Chinese [DVD9]\VIDEO_TS\VTS_04_0.VOB
Format : MPEG-PS
File size : 8.00 KiB
Duration : 33ms
Overall bit rate : 1 986 Kbps
Video
ID : 224 (0xE0)
Format : MPEG Video
Format version : Version 2
Format profile : Main@Main
Format settings, BVOP : No
Format settings, Matrix : Default
Duration : 33ms
Bit rate mode : Constant
Bit rate : 8 000 Kbps
Width : 720 pixels
Height : 480 pixels
Display aspect ratio : 16:9
Frame rate : 29.970 fps
Standard : NTSC
Color space : YUV
Chroma subsampling : 4:2:0
Bit depth : 8 bits
Scan type : Progressive
Scan order : Top Field First
Compression mode : Lossy
Bits/(Pixel*Frame) : 0.772
Stream size : 32.2 KiB
Menu
General
Complete name : D:\Мои релизы\Der Chinese [DVD9]\VIDEO_TS\VTS_04_1.VOB
Format : MPEG-PS
File size : 469 MiB
Duration : 15mn 55s
Overall bit rate : 4 115 Kbps
Video
ID : 224 (0xE0)
Format : MPEG Video
Format version : Version 2
Format profile : Main@Main
Format settings, BVOP : Yes
Format settings, Matrix : Default
Format settings, GOP : M=2, N=12
Duration : 33ms
Bit rate mode : Variable
Bit rate : 3 809 Kbps
Nominal bit rate : 9 800 Kbps
Width : 720 pixels
Height : 480 pixels
Display aspect ratio : 16:9
Frame rate : 23.976 fps
Standard : NTSC
Color space : YUV
Chroma subsampling : 4:2:0
Bit depth : 8 bits
Scan type : Progressive
Scan order : 2:3 Pulldown
Compression mode : Lossy
Bits/(Pixel*Frame) : 0.460
Stream size : 15.3 KiB (0%)
Audio
ID : 128 (0x80)
Format : AC-3
Format/Info : Audio Coding 3
Mode extension : CM (complete main)
Duration : 15mn 55s
Bit rate mode : Constant
Bit rate : 224 Kbps
Channel(s) : 2 channels
Channel positions : Front: L R
Sampling rate : 48.0 KHz
Bit depth : 16 bits
Compression mode : Lossy
Stream size : 25.5 MiB (5%)
Menu

Скриншоты меню

Скриншоты

Скриншоты доп. материалов


_________________
Показать сообщения:    

Текущее время: Сегодня 13:38

Часовой пояс: GMT



Вы не можете начинать темы
Вы не можете отвечать на сообщения
Вы не можете редактировать свои сообщения
Вы не можете удалять свои сообщения
Вы не можете голосовать в опросах
Вы не можете прикреплять файлы к сообщениям
Вы не можете скачивать файлы