Важное объявление!
У Нас Все раздачи мультитрекерные, при нуле пиров в релизах, можете смело вставать на закачку!
 
Автор Сообщение

HUNTER

Стаж:
4 года 4 месяца
Сообщений:
56790

Репутация: 101

[+] [-]
Вне форума [Профиль] [ЛС]

Киборг 2: Стеклянная тень / Cyborg 2
Страна: США
Жанр: фантастика, боевик, триллер
Год выпуска: 1993
Продолжительность: 01:39:20
Перевод 1: Профессиональный (многоголосый закадровый)
Перевод 2: Авторский (одноголосый закадровый) Сергей Визгунов
Cубтитры: английские
Оригинальная аудиодорожка: английский
Режиссер: Майкл Шродер / Michael Schroeder
В ролях: Элиас Котеас, Анджелина Джоли, Джек Пэланс, Билли Драго, Карен Шеперд, Аллен Гарфилд, Рик Янг, Рене Гриффин, Свен-Оле Торсен, Трейси Уолтер...
Описание: В 2074 году Земля охвачена борьбой крупнейших корпораций. Кобайяши Электроникс (Япония) и Пинуил Роботикс (США) сражаются за контролем над индустрией производства программного обеспечения и производства киборгов. Киборги заменили людей во всех отношениях: от солдата на поле боя до проститутки в борделе. На карту поставлены миллиарды долларов.
В американской корпорации создан киборг в виде красивой женщины, в тело которой была введена мощнейшая жидкая взрывчатка. Эта «киборгша» должна была пойти на переговоры с руководством японской корпорации и там взорваться. После этого акции бы упали, и конкурент был бы устранен. Все, наверное, так и произошло бы, но красоткой увлекся ее учитель каратэ. Когда она узнала, что обречена на смерть своими творцами, он пришел ей на помощь и началась погоня…
Доп. информация: Перевод Визгунова с раздачи JUSTKANT, за оцифровку спасибо 21Sepsis.
Сэмпл: http://multi-up.com/1056706
Тип релиза: WEB-DL 720p
Контейнер: MKV
Видео: 1280x542 (2.35:1), 23.976 fps, AVC, ~3975 Kbps, 0.239 bits/pixel
Аудио 1: Russian, 48.0 KHz, AC3, 6 ch, 448 Kbps
Аудио 2: Russian, 48.0 KHz, AC3, 2 ch, 192 Kbps - Сергей Визгунов
Аудио 3: English, 48.0 KHz, AC3, 6 ch, 448 Kbps

MediaInfo

General
Unique ID : 252097838291858638555336626950247728884 (0xBDA8470EB4F1BE9EA70A940B09E2C6F4)
Complete name : D:\Cyborg 2 - Glass Shadow. WEB-DL WEB-DL 720p.mkv
Format : Matroska
Format version : Version 4 / Version 2
File size : 3.58 GiB
Duration : 1h 39mn
Overall bit rate : 5 166 Kbps
Encoded date : UTC 2015-07-01 12:58:30
Writing application : mkvmerge v8.1.0 ('Psychedelic Postcard') 64bit
Writing library : libebml v1.3.1 + libmatroska v1.4.2
DURATION : 01:39:20.576000000
NUMBER_OF_FRAMES : 186268
NUMBER_OF_BYTES : 333792256
_STATISTICS_WRITING_APP : mkvmerge v8.1.0 ('Psychedelic Postcard') 64bit
_STATISTICS_WRITING_DATE_UT : 2015-07-01 12:58:30
_STATISTICS_TAGS : BPS DURATION NUMBER_OF_FRAMES NUMBER_OF_BYTES
Video
ID : 1
Format : AVC
Format/Info : Advanced Video Codec
Format profile : Main@L3.1
Format settings, CABAC : No
Format settings, ReFrames : 2 frames
Codec ID : V_MPEG4/ISO/AVC
Duration : 1h 39mn
Bit rate : 3 975 Kbps
Width : 1 280 pixels
Height : 542 pixels
Display aspect ratio : 2.35:1
Frame rate mode : Constant
Frame rate : 23.976 fps
Color space : YUV
Chroma subsampling : 4:2:0
Bit depth : 8 bits
Scan type : Progressive
Bits/(Pixel*Frame) : 0.239
Stream size : 2.76 GiB (77%)
Language : English
Default : Yes
Forced : No
Color range : Limited
Color primaries : BT.709
Transfer characteristics : BT.709
Matrix coefficients : BT.709
Audio #1
ID : 2
Format : AC-3
Format/Info : Audio Coding 3
Mode extension : CM (complete main)
Format settings, Endianness : Big
Codec ID : A_AC3
Duration : 1h 39mn
Bit rate mode : Constant
Bit rate : 448 Kbps
Channel(s) : 6 channels
Channel positions : Front: L C R, Side: L R, LFE
Sampling rate : 48.0 KHz
Compression mode : Lossy
Stream size : 318 MiB (9%)
Language : Russian
Default : Yes
Forced : No
Audio #2
ID : 3
Format : AC-3
Format/Info : Audio Coding 3
Mode extension : CM (complete main)
Format settings, Endianness : Big
Codec ID : A_AC3
Duration : 1h 39mn
Bit rate mode : Constant
Bit rate : 192 Kbps
Channel(s) : 2 channels
Channel positions : Front: L R
Sampling rate : 48.0 KHz
Compression mode : Lossy
Stream size : 136 MiB (4%)
Title : Сергей Визгунов
Language : Russian
Default : No
Forced : No
Audio #3
ID : 4
Format : AC-3
Format/Info : Audio Coding 3
Mode extension : CM (complete main)
Format settings, Endianness : Big
Codec ID : A_AC3
Duration : 1h 39mn
Bit rate mode : Constant
Bit rate : 448 Kbps
Channel(s) : 6 channels
Channel positions : Front: L C R, Side: L R, LFE
Sampling rate : 48.0 KHz
Compression mode : Lossy
Stream size : 318 MiB (9%)
Language : English
Default : No
Forced : No
Text
ID : 5
Format : UTF-8
Codec ID : S_TEXT/UTF8
Codec ID/Info : UTF-8 Plain Text
Language : English
Default : No
Forced : No
Menu
00:00:00.000 : en:Chapter 1
00:05:05.000 : en:Chapter 2
00:13:57.000 : en:Chapter 3
00:22:53.000 : en:Chapter 4
00:31:59.000 : en:Chapter 5
00:42:12.000 : en:Chapter 6
00:52:58.000 : en:Chapter 7
01:01:37.000 : en:Chapter 8
01:11:47.000 : en:Chapter 9
01:19:41.000 : en:Chapter 10
01:28:23.000 : en:Chapter 11
01:35:32.000 : en:Chapter 12

Скриншоты


_________________
Показать сообщения:    

Текущее время: Сегодня 17:07

Часовой пояс: GMT



Вы не можете начинать темы
Вы не можете отвечать на сообщения
Вы не можете редактировать свои сообщения
Вы не можете удалять свои сообщения
Вы не можете голосовать в опросах
Вы не можете прикреплять файлы к сообщениям
Вы не можете скачивать файлы