Важное объявление!
У Нас Все раздачи мультитрекерные, при нуле пиров в релизах, можете смело вставать на закачку!
 
Автор Сообщение

HUNTER

Стаж:
4 года 4 месяца
Сообщений:
56733

Репутация: 101

[+] [-]
Вне форума [Профиль] [ЛС]

Кентерберийская история / A Canterbury Tale
Страна: Великобритания
Жанр: драма, комедия, детектив, военный
Год выпуска: 1944
Продолжительность: 02:04:42
Перевод: Профессиональный (многоголосый закадровый) - 100ТВ
Cубтитры: английские
Оригинальная аудиодорожка: английский
Режиссер: Майкл Пауэлл / Michael Powell, Эмерик Прессбургер / Emeric Pressburger
В ролях: Эрик Портман, Шила Сим, Деннис Прайс, Сержант Джон Свит, Эзмонд Найт, Чарльз Хоутри, Хэй Питри, Джордж Мерритт, Эдвард Ригби, Фрида Джексон
Описание: Грустная девушка, приехавшая работать на ферме вместо призванных на войну мужчин, американец, следующий в Кентербери, и британский сержант, на отдыхе перед отправкой на фронт, ночью оказались вместе в небольшой английской деревне. Пока они бродили, из темноты возник злоумышленник и облил девушку клеем. Как выяснилось, то был известный в округе и неуловимый «клейщик», поиски которого на время объединят героев.
Доп. информация:


За дорожку с переводом спасибо palmeiras и natusik2009
Сэмпл: http://sendfile.su/1043384
Тип релиза: WEB-DL 720p
Контейнер: MKV
Видео: AVC, 958x720, L3.1, 23.976fps, 4016kbps
Аудио 1: Russian: AC3, 48000Hz, 2ch, 192kbps
Аудио 2: English: AC3, 48000Hz, 1ch, 192kbps - DVD
Аудио 3: English: AAC, 48000Hz, 2ch, 112kbps - WEB-DL
Аудио 4: English: AC3, 48000Hz, 1ch, 192kbps - commentary by film historian Ian Christie
Формат субтитров: softsub (SRT)

MediaInfo

Общее
Уникальный идентификатор : 214079684810322308120876295344084559017 (0xA10E3F5F2EB180468D453132DFDD24A9)
Полное имя : T:\A Canterbury Tale (WEB-DL 720p).mkv
Формат : Matroska
Версия формата : Version 4 / Version 2
Размер файла : 4,10 Гбайт
Продолжительность : 2 ч. 4 м.
Общий поток : 4704 Кбит/сек
Название фильма : A Canterbury Tale
Дата кодирования : UTC 2014-11-01 08:31:29
Программа кодирования : mkvmerge v6.9.1 ('Blue Panther') 64bit built on Apr 18 2014 18:23:38
Библиотека кодирования : libebml v1.3.0 + libmatroska v1.4.1
Видео
Идентификатор : 1
Формат : AVC
Формат/Информация : Advanced Video Codec
Профиль формата : Main@L3.1
Параметр CABAC формата : Нет
Параметр ReFrames формата : 2 кадра
Идентификатор кодека : V_MPEG4/ISO/AVC
Продолжительность : 2 ч. 4 м.
Ширина : 958 пикселей
Высота : 720 пикселей
Соотношение сторон : 4:3
Режим частоты кадров : Постоянный
Частота кадров : 23,976 кадра/сек
Цветовое пространство : YUV
Субдискретизация насыщенности : 4:2:0
Битовая глубина : 8 бит
Тип развёртки : Прогрессивная
Язык : English
Default : Да
Forced : Нет
Основные цвета : BT.709
Характеристики трансфера : BT.709
Коэффициенты матрицы : BT.709
Аудио #1
Идентификатор : 2
Формат : AC-3
Формат/Информация : Audio Coding 3
Расширение режима : CM (complete main)
Параметр Endianness формата : Big
Идентификатор кодека : A_AC3
Продолжительность : 2 ч. 4 м.
Вид битрейта : Постоянный
Битрейт : 192 Кбит/сек
Каналы : 2 канала
Расположение каналов : Front: L R
Частота : 48,0 КГц
Битовая глубина : 16 бит
Метод сжатия : С потерями
Размер потока : 171 Мбайт (4%)
Заголовок : 100TV
Язык : Russian
Default : Да
Forced : Нет
Аудио #2
Идентификатор : 3
Формат : AC-3
Формат/Информация : Audio Coding 3
Расширение режима : CM (complete main)
Параметр Endianness формата : Big
Идентификатор кодека : A_AC3
Продолжительность : 2 ч. 4 м.
Вид битрейта : Постоянный
Битрейт : 192 Кбит/сек
Каналы : 1 канал
Расположение каналов : Front: C
Частота : 48,0 КГц
Битовая глубина : 16 бит
Метод сжатия : С потерями
Размер потока : 171 Мбайт (4%)
Заголовок : DVD
Язык : English
Default : Нет
Forced : Нет
Аудио #3
Идентификатор : 4
Формат : AAC
Формат/Информация : Advanced Audio Codec
Профиль формата : LC
Идентификатор кодека : A_AAC
Продолжительность : 2 ч. 4 м.
Каналы : 2 канала
Расположение каналов : Front: L R
Частота : 48,0 КГц
Метод сжатия : С потерями
Заголовок : WEB-DL
Язык : English
Default : Нет
Forced : Нет
Аудио #4
Идентификатор : 5
Формат : AC-3
Формат/Информация : Audio Coding 3
Расширение режима : CM (complete main)
Параметр Endianness формата : Big
Идентификатор кодека : A_AC3
Продолжительность : 2 ч. 4 м.
Вид битрейта : Постоянный
Битрейт : 192 Кбит/сек
Каналы : 1 канал
Расположение каналов : Front: C
Частота : 48,0 КГц
Битовая глубина : 16 бит
Метод сжатия : С потерями
Размер потока : 171 Мбайт (4%)
Заголовок : commentary by film historian Ian Christie
Язык : English
Default : Нет
Forced : Нет
Текст
Идентификатор : 6
Формат : UTF-8
Идентификатор кодека : S_TEXT/UTF8
Идентификатор кодека/Информация : UTF-8 Plain Text
Язык : English
Default : Нет
Forced : Нет
Меню
00:00:00.000 : en:Chapter One
00:02:51.000 : en:Chapter Two
00:13:07.000 : en:Chapter Three
00:20:40.000 : en:Chapter Four
00:35:59.000 : en:Chapter Five
00:46:22.000 : en:Chapter Six
01:01:26.000 : en:Chapter Seven
01:18:43.000 : en:Chapter Eight
01:29:11.000 : en:Chapter Nine
01:38:57.000 : en:Chapter Ten
01:48:31.000 : en:Chapter Eleven
01:58:34.000 : en:Chapter Twelve

Скриншоты


_________________
Показать сообщения:    

Текущее время: Сегодня 22:57

Часовой пояс: GMT



Вы не можете начинать темы
Вы не можете отвечать на сообщения
Вы не можете редактировать свои сообщения
Вы не можете удалять свои сообщения
Вы не можете голосовать в опросах
Вы не можете прикреплять файлы к сообщениям
Вы не можете скачивать файлы