Важное объявление!
У Нас Все раздачи мультитрекерные, при нуле пиров в релизах, можете смело вставать на закачку!
 
Автор Сообщение

HUNTER

Стаж:
4 года 4 месяца
Сообщений:
56755

Репутация: 101

[+] [-]
Вне форума [Профиль] [ЛС]

Каток / Скетинг-ринг / The Rink-
Год выпуска: 1916
Страна: США
Жанр: комедия
Продолжительность: 00:25:58
Перевод: Субтитры
Оригинальная аудиодорожка: музыкальное сопровождение
Cубтитры: Русские, английские интертитры-Режиссер: Чарльз Чаплин / Charles Chaplin
В ролях: Чарльз Чаплин, Эдна Первиэнс, Джеймс Т. Келли, Эрик Кэмпбелл, Генри Бергман, Ллойд Бэйкон, Альберт Остин, Фрэнк Дж. Коулмэн, Джон Рэнд, Шарлотта Мино-Описание:
Герой Чарли работает в ресторане. После череды приключений на работе он во время ланча отправляется отдохнуть на каток. Там он видит, как мистер Стаут активно ухаживает за девушкой, которой он не нравится. Вечером Чарли появляется на вечеринке у той девушки, представляясь как сэр Сесиль Зельцер…- | IMDb | Сэмпл-Качество: BDRemux 1080p (Chaplin's Mutual Comedies 1916-1917 1080p Blu-ray AVC DD 2.0, thx batier22)
Контейнер: MKV
Видео: AVC, 1920x1080 (1.33:1), 23.976 fps, 24879 kbps
Аудио 1: AС3, 2.0, 48 kHz, 192 kbps — Music by Antonio Coppola
Аудио 2: AС3, 2.0, 48 kHz, 192 kbps— Alternate Improvisational Piano by Maud Nelissen
Формат субтитров: softsub (SRT)

Скриншоты


MI

General
Unique ID : 191493018536335996597702373796417121661 (0x901036BF2322B154B19CE0308CB02D7D)
Complete name : The.Rink.1916.1080p.Remux.mkv
Format : Matroska
Format version : Version 2
File size : 4.58 GiB
Duration : 25mn 58s
Overall bit rate mode : Variable
Overall bit rate : 25.3 Mbps
Movie name : The Rink / Каток (1916) – RuTracker
Encoded date : UTC 2014-08-28 19:32:33
Writing application : mkvmerge v7.0.0 ('Where We Going') 64bit built on Jun 9 2014 15:16:27
Writing library : libebml v1.3.0 + libmatroska v1.4.1
Attachment : Yes
Video
ID : 1
Format : AVC
Format/Info : Advanced Video Codec
Format profile : High@L4.1
Format settings, CABAC : Yes
Format settings, ReFrames : 4 frames
Format settings, GOP : M=3, N=24
Codec ID : V_MPEG4/ISO/AVC
Duration : 25mn 58s
Bit rate mode : Variable
Bit rate : 24.4 Mbps
Maximum bit rate : 35.0 Mbps
Width : 1 920 pixels
Height : 1 080 pixels
Display aspect ratio : 16:9
Frame rate mode : Constant
Frame rate : 23.976 fps
Standard : NTSC
Color space : YUV
Chroma subsampling : 4:2:0
Bit depth : 8 bits
Scan type : Progressive
Bits/(Pixel*Frame) : 0.490
Stream size : 4.42 GiB (96%)
Title : Chaplin's Mutual Comedies 1916-1917 1080p Blu-ray AVC DD 2.0
Language : English
Default : Yes
Forced : No
Color primaries : BT.709
Transfer characteristics : BT.709
Matrix coefficients : BT.709
Audio #1
ID : 2
Format : AC-3
Format/Info : Audio Coding 3
Mode extension : CM (complete main)
Format settings, Endianness : Big
Codec ID : A_AC3
Duration : 25mn 58s
Bit rate mode : Constant
Bit rate : 192 Kbps
Channel(s) : 2 channels
Channel positions : Front: L R
Sampling rate : 48.0 KHz
Bit depth : 16 bits
Compression mode : Lossy
Stream size : 35.7 MiB (1%)
Title : Music by Antonio Coppola
Default : Yes
Forced : No
Audio #2
ID : 3
Format : AC-3
Format/Info : Audio Coding 3
Mode extension : CM (complete main)
Format settings, Endianness : Big
Codec ID : A_AC3
Duration : 25mn 58s
Bit rate mode : Constant
Bit rate : 192 Kbps
Channel(s) : 2 channels
Channel positions : Front: L R
Sampling rate : 48.0 KHz
Bit depth : 16 bits
Compression mode : Lossy
Stream size : 35.7 MiB (1%)
Title : Alternate Improvisational Piano by Maud Nelissen
Default : No
Forced : No
Text
ID : 4
Format : UTF-8
Codec ID : S_TEXT/UTF8
Codec ID/Info : UTF-8 Plain Text
Language : Russian
Default : Yes
Forced : No
Menu
00:00:00.000 : en:Chapter 1
00:05:41.633 : en:Chapter 2
00:10:07.023 : en:Chapter 3
00:16:12.722 : en:Chapter 4
00:20:03.869 : en:Chapter 5

_________________
Показать сообщения:    

Текущее время: Сегодня 08:26

Часовой пояс: GMT



Вы не можете начинать темы
Вы не можете отвечать на сообщения
Вы не можете редактировать свои сообщения
Вы не можете удалять свои сообщения
Вы не можете голосовать в опросах
Вы не можете прикреплять файлы к сообщениям
Вы не можете скачивать файлы