Важное объявление!
У Нас Все раздачи мультитрекерные, при нуле пиров в релизах, можете смело вставать на закачку!
 
Автор Сообщение

HUNTER

Стаж:
4 года 4 месяца
Сообщений:
56722

Репутация: 101

[+] [-]
Вне форума [Профиль] [ЛС]

-Каспер / Casper«Дружба превыше всего»
Страна: США
Студия: Amblin Entertainment, The Harvey Entertainment Company, Universal Pictures
Жанр: Фэнтези, комедия, семейный
Год выпуска: 1995
Продолжительность: 01:40:08-Перевод 1: Профессиональный (многоголосый, закадровый), R5
Перевод 2: Профессиональный (многоголосый, закадровый)
Перевод 3: Профессиональный (двухголосый, закадровый), НТВ+
Перевод 4: Профессиональный (двухголосый, закадровый), П. Гланц и Т. Казакова
Перевод 5: Профессиональный (одноголосый, закадровый), Ю. Живов
Перевод 6: Профессиональный (одноголосый, закадровый), С. Визгунов
Перевод 7: Профессиональный (одноголосый, закадровый), П. Санаев
Оригинальная аудиодорожка: английский
Cубтитры: русские, английские
Режиссер: Брэд Силберлинг / Brad Silberling
В ролях: Билл Пуллман, Кристина Риччи, Чонси Леопарди, Спенсер Врумэн, Малачи Пирсон, Кэти Мориарти, Эрик Айдл, Бен Стайн, Дон Новелло, Фред Роджерс
Описание: Главный герой фильма — созданное мастерством мультипликаторов маленькое дружелюбное приведение по имени Каспер, не желающее походить на своих хулиганствующих собратьев.
Его дружба с девочкой-подростком Кэт помогает ей и ее отцу, доктору Харви, справиться с опасностями, поджидающими их в населенном призраками доме. Законы дружбы и доброе сердце заставляют Каспера ради счастья своих друзей пожертвовать возможностью вновь стать человеком.-
Сэмпл: скачать-Релиз от -
Автор рипа: Elheym
Качество: BDRip 720p (источник: / BDRemux / 1080p)
Контейнер: MKV
Видео: 1278x690 (1.85:1), 23.976 fps, MPEG-4 AVC, ~7538 kbps avg, 0.357 bit/pixel
Аудио #1: Русский: АС3, 2.0, 48 kHz, ~192 Кбит/с | Профессиональный (многоголосый, закадровый), R5 |
Аудио #2: Русский: АС3, 2.0, 48 kHz, ~192 Кбит/с | Профессиональный (многоголосый, закадровый) |
Аудио #3: Русский: АС3, 2.0, 48 kHz, ~192 Кбит/с | Профессиональный (двухголосый, закадровый), НТВ+ |
Аудио #4: Русский: DTS, 5.1, 48 kHz, ~1509 Кбит/с | Профессиональный (двухголосый, закадровый), Гланц и Казакова |
Аудио #5: Русский: DTS, 5.1, 48 kHz, ~1509 Кбит/с | Авторский (одноголосый, закадровый), Живов |
Аудио #6: Русский: АС3, 2.0, 48 kHz, ~192 Кбит/с | Авторский (одноголосый, закадровый), Визгунов |
Аудио #7: Русский: АС3, 2.0, 48 kHz, ~192 Кбит/с | Авторский (одноголосый, закадровый), Санаев |
Аудио #8: Английский: DTS, 5.1, 48 kHz, ~1509 Кбит/с | Оригинал |
Субтитры: Русские (полные), Английские (полные, полные SDH)
Главы: Присутствуют, сохранены оригинальные
Размер: 9.29 GB
Цитата:
Цитата:

Дорожки №4 и №5 получены путем наложения чистых голосов на центральный канал декодированных DTS-HD MA. Работа со звуком by Anoobis за что ему большое спасибо.
Звуковая дорожка с авторским переводом от Сергея Визгунова синхронизированна Elheym без пересжатия.

MediaInfo

Уникальный идентификатор : 200761037201860413957507074142263287667 (0x97092B58A48813098CA1394019579F73)
Полное имя : Casper.1995.720p.BluRay.7xRus.Eng.-HQCLUB.mkv
Формат : Matroska
Версия формата : Version 2
Размер файла : 9,30 Гбайт
Продолжительность : 1 ч. 40 м.
Общий поток : 13,3 Мбит/сек
Дата кодирования : UTC 2014-09-11 17:53:24
Программа кодирования : mkvmerge v5.2.0 ('I can't explain') built on Dec 18 2011 18:12:03
Библиотека кодирования : libebml v1.2.3 + libmatroska v1.3.0
Attachment : Yes / Yes
Видео
Идентификатор : 1
Формат : AVC
Формат/Информация : Advanced Video Codec
Профиль формата : High@L4.1
Параметр CABAC формата : Да
Параметр ReFrames формата : 7 кадров
Идентификатор кодека : V_MPEG4/ISO/AVC
Продолжительность : 1 ч. 40 м.
Битрейт : 7538 Кбит/сек
Ширина : 1278 пикселей
Высота : 690 пикселей
Соотношение сторон : 1,85:1
Режим частоты кадров : Постоянный
Частота кадров : 23,976 кадра/сек
Цветовое пространство : YUV
Субдискретизация насыщенности : 4:2:0
Битовая глубина : 8 бит
Тип развёртки : Прогрессивная
Бит/(Пиксели*Кадры) : 0.357
Размер потока : 5,27 Гбайт (57%)
Заголовок : Каспер / Casper (1995) BDRip 720p by HQCLUB [Elheym]
Библиотека кодирования : x264 core 142 r2453 ea0ca51
Настройки программы : cabac=1 / ref=8 / deblock=1:-3:-2 / analyse=0x3:0x113 / me=umh / subme=11 / psy=1 / psy_rd=1.06:0.03 / mixed_ref=1 / me_range=32 / chroma_me=1 / trellis=2 / 8x8dct=1 / cqm=0 / deadzone=21,11 / fast_pskip=0 / chroma_qp_offset=-5 / threads=6 / lookahead_threads=1 / sliced_threads=0 / nr=0 / decimate=1 / interlaced=0 / bluray_compat=0 / constrained_intra=0 / bframes=12 / b_pyramid=1 / b_adapt=2 / b_bias=0 / direct=1 / weightb=1 / open_gop=0 / weightp=2 / keyint=230 / keyint_min=23 / scenecut=40 / intra_refresh=0 / rc_lookahead=60 / rc=crf / mbtree=0 / crf=16.4 / qcomp=0.60 / qpmin=0 / qpmax=69 / qpstep=4 / vbv_maxrate=50000 / vbv_bufsize=62500 / crf_max=0.0 / nal_hrd=none / filler=0 / ip_ratio=1.40 / pb_ratio=1.30 / aq=2:0.90
Язык : English
Default : Да
Forced : Нет
Аудио #1
Идентификатор : 2
Формат : AC-3
Формат/Информация : Audio Coding 3
Расширение режима : CM (complete main)
Параметр Endianness формата : Big
Идентификатор кодека : A_AC3
Продолжительность : 1 ч. 40 м.
Вид битрейта : Постоянный
Битрейт : 192 Кбит/сек
Каналы : 2 канала
Расположение каналов : Front: L R
Частота : 48,0 КГц
Битовая глубина : 16 бит
Метод сжатия : С потерями
Размер потока : 138 Мбайт (1%)
Заголовок : АС3 2.0 @ 192 kbps - MVO, R5
Язык : Russian
Default : Нет
Forced : Нет
Аудио #2
Идентификатор : 3
Формат : AC-3
Формат/Информация : Audio Coding 3
Расширение режима : CM (complete main)
Параметр Endianness формата : Big
Идентификатор кодека : A_AC3
Продолжительность : 1 ч. 40 м.
Вид битрейта : Постоянный
Битрейт : 192 Кбит/сек
Каналы : 2 канала
Расположение каналов : Front: L R
Частота : 48,0 КГц
Битовая глубина : 16 бит
Метод сжатия : С потерями
Размер потока : 138 Мбайт (1%)
Заголовок : АС3 2.0 @ 192 kbps - MVO
Язык : Russian
Default : Нет
Forced : Нет
Аудио #3
Идентификатор : 4
Формат : AC-3
Формат/Информация : Audio Coding 3
Расширение режима : CM (complete main)
Параметр Endianness формата : Big
Идентификатор кодека : A_AC3
Продолжительность : 1 ч. 40 м.
Вид битрейта : Постоянный
Битрейт : 192 Кбит/сек
Каналы : 2 канала
Расположение каналов : Front: L R
Частота : 48,0 КГц
Битовая глубина : 16 бит
Метод сжатия : С потерями
Размер потока : 138 Мбайт (1%)
Заголовок : АС3 2.0 @ 192 kbps - DVO, NTV+
Язык : Russian
Default : Нет
Forced : Нет
Аудио #4
Идентификатор : 5
Формат : DTS
Формат/Информация : Digital Theater Systems
Режим : 16
Параметр Endianness формата : Big
Идентификатор кодека : A_DTS
Продолжительность : 1 ч. 40 м.
Вид битрейта : Постоянный
Битрейт : 1509 Кбит/сек
Каналы : 6 каналов
Расположение каналов : Front: L C R, Side: L R, LFE
Частота : 48,0 КГц
Битовая глубина : 16 бит
Метод сжатия : С потерями
Размер потока : 1,06 Гбайт (11%)
Заголовок : DTS 5.1 @ 1509 kbps - DVO, Glanc & Kazakova
Язык : Russian
Default : Нет
Forced : Нет
Аудио #5
Идентификатор : 6
Формат : DTS
Формат/Информация : Digital Theater Systems
Режим : 16
Параметр Endianness формата : Big
Идентификатор кодека : A_DTS
Продолжительность : 1 ч. 40 м.
Вид битрейта : Постоянный
Битрейт : 1509 Кбит/сек
Каналы : 6 каналов
Расположение каналов : Front: L C R, Side: L R, LFE
Частота : 48,0 КГц
Битовая глубина : 16 бит
Метод сжатия : С потерями
Размер потока : 1,06 Гбайт (11%)
Заголовок : DTS 5.1 @ 1509 kbps - AVO, Jivov
Язык : English
Default : Нет
Forced : Нет
Аудио #6
Идентификатор : 7
Формат : AC-3
Формат/Информация : Audio Coding 3
Расширение режима : CM (complete main)
Параметр Endianness формата : Big
Идентификатор кодека : A_AC3
Продолжительность : 1 ч. 40 м.
Вид битрейта : Постоянный
Битрейт : 192 Кбит/сек
Каналы : 2 канала
Расположение каналов : Front: L R
Частота : 48,0 КГц
Битовая глубина : 16 бит
Метод сжатия : С потерями
Размер потока : 138 Мбайт (1%)
Заголовок : АС3 2.0 @ 192 kbps - AVO, Vizgunov
Язык : Russian
Default : Нет
Forced : Нет
Аудио #7
Идентификатор : 8
Формат : AC-3
Формат/Информация : Audio Coding 3
Расширение режима : CM (complete main)
Параметр Endianness формата : Big
Идентификатор кодека : A_AC3
Продолжительность : 1 ч. 40 м.
Вид битрейта : Постоянный
Битрейт : 192 Кбит/сек
Каналы : 2 канала
Расположение каналов : Front: L R
Частота : 48,0 КГц
Битовая глубина : 16 бит
Метод сжатия : С потерями
Размер потока : 138 Мбайт (1%)
Заголовок : АС3 2.0 @ 192 kbps - AVO, Sanaev
Язык : Russian
Default : Нет
Forced : Нет
Аудио #8
Идентификатор : 9
Формат : DTS
Формат/Информация : Digital Theater Systems
Режим : 16
Параметр Endianness формата : Big
Идентификатор кодека : A_DTS
Продолжительность : 1 ч. 40 м.
Вид битрейта : Постоянный
Битрейт : 1509 Кбит/сек
Каналы : 6 каналов
Расположение каналов : Front: L C R, Side: L R, LFE
Частота : 48,0 КГц
Битовая глубина : 24 бит
Метод сжатия : С потерями
Размер потока : 1,06 Гбайт (11%)
Заголовок : DTS 5.1 @ 1509 kbps - Original
Язык : English
Default : Нет
Forced : Нет
Текст #1
Идентификатор : 10
Формат : UTF-8
Идентификатор кодека : S_TEXT/UTF8
Идентификатор кодека/Информация : UTF-8 Plain Text
Заголовок : Full
Язык : Russian
Default : Нет
Forced : Нет
Текст #2
Идентификатор : 11
Формат : UTF-8
Идентификатор кодека : S_TEXT/UTF8
Идентификатор кодека/Информация : UTF-8 Plain Text
Заголовок : Full
Язык : English
Default : Нет
Forced : Нет
Текст #3
Идентификатор : 12
Формат : UTF-8
Идентификатор кодека : S_TEXT/UTF8
Идентификатор кодека/Информация : UTF-8 Plain Text
Заголовок : Full SDH
Язык : English
Default : Нет
Forced : Нет
Меню
00:00:00.000 : :00:00:00.000
00:02:44.455 : :00:02:44.455
00:05:16.899 : :00:05:16.899
00:10:37.136 : :00:10:37.136
00:14:00.104 : :00:14:00.104
00:19:23.871 : :00:19:23.871
00:22:27.054 : :00:22:27.054
00:27:11.171 : :00:27:11.171
00:29:44.783 : :00:29:44.783
00:33:55.584 : :00:33:55.584
00:37:31.332 : :00:37:31.332
00:40:56.745 : :00:40:56.745
00:44:26.622 : :00:44:26.622
00:50:20.142 : :00:50:20.142
00:53:40.752 : :00:53:40.752
00:58:32.008 : :00:58:32.008
01:02:35.543 : :01:02:35.543
01:05:24.921 : :01:05:24.921
01:12:26.008 : :01:12:26.008
01:15:19.723 : :01:15:19.723
01:20:29.199 : :01:20:29.199
01:25:21.908 : :01:25:21.908
01:27:12.518 : :01:27:12.518
01:32:17.823 : :01:32:17.823
01:33:52.627 : :01:33:52.627
01:40:00.050 : :01:40:00.050

x264 log

x264 [info]: frame I:916 Avg QP:14.47 size:128658
x264 [info]: frame P:28742 Avg QP:15.88 size: 68946
x264 [info]: frame B:114401 Avg QP:18.35 size: 32834
x264 [info]: consecutive B-frames: 1.2% 1.3% 4.3% 20.9% 13.7% 48.7% 4.5% 2.3% 1.0% 0.8% 0.4% 0.5% 0.4%
x264 [info]: ref P L0: 51.5% 10.8% 16.5% 8.0% 5.5% 4.1% 3.4% 0.2% 0.0%
x264 [info]: ref B L0: 82.0% 8.9% 4.4% 2.2% 1.6% 0.9%
x264 [info]: ref B L1: 93.8% 6.2%

Скриншоты


_________________
Показать сообщения:    

Текущее время: Сегодня 09:57

Часовой пояс: GMT



Вы не можете начинать темы
Вы не можете отвечать на сообщения
Вы не можете редактировать свои сообщения
Вы не можете удалять свои сообщения
Вы не можете голосовать в опросах
Вы не можете прикреплять файлы к сообщениям
Вы не можете скачивать файлы