Важное объявление!
У Нас Все раздачи мультитрекерные, при нуле пиров в релизах, можете смело вставать на закачку!
 
Автор Сообщение

HUNTER

Стаж:
4 года 4 месяца
Сообщений:
56808

Репутация: 101

[+] [-]
Вне форума [Профиль] [ЛС]

Карты, деньги, два ствола Lock, Stock and Two Smoking Barrels
Страна: Великобритания
Жанр: драма, криминал, комедия
Год выпуска: 1998
Продолжительность: 01:47:23-Перевод 1: Профессиональный (многоголосый закадровый) |Киномания|
Перевод 2: Авторский (одноголосый закадровый) |Гоблин|
Перевод 3: Авторский (одноголосый закадровый) |Гоблин_2 (поздняя версия)|
Перевод 4: Авторский (одноголосый закадровый) |Ю. Сербин|
Cубтитры: английские, русские
Оригинальная аудиодорожка: английский -Режиссер: Гай Ричи / Guy Ritchie-В ролях-Джейсон Стэйтем, Ник Моран, Джейсон Флеминг, Декстер Флетчер, Винни Джонс, Стинг, Стивен Макинтош, Николас Роу, Ник Марк, Чарльз Форбс-Описание-Четверо молодых парней накопили каждый по 25 тысяч фунтов, чтобы один из них мог сыграть в карты с опытным шулером и матерым преступником, известным по кличке Гарри-Топор. Парень в итоге проиграл 500 тысяч, на уплату долга ему дали неделю. В противном случае и ему и его “спонсорам” каждый день будут отрубать по пальцу, а потом… Чтобы выйти из положения, ребята решили ограбить бандитов, решивших ограбить трех “ботаников”, выращивающих марихуану для местного наркобарона. Гарри-Топор тем временем нанимает через своего подручного двух крайне неумных типов добыть для него ружья, среди которых есть два очень дорогих антикварных. Посчитав их старой рухлядью, бандиты продали антиквариат нашим героям, а те использовали двухстволки для ограбления. Топор, естественно, потребовал ружья обратно…-Качество видео: BDRemux 1080p
Исходное видео: Blu-Ray disk (custom) |АДмин|-Контейнер: MKV-Видео: VC-1, 1080p, 31441 kbps, 23.976 fps
Аудио: AC-3, 640 kbps, Dolby Digital, 3/2 (L,C,R,l,r) + LFE ch, 48 KHz |MVO|
Аудио: DТS-HD MA, 3941 kbps, 5.1 (Front: L C R, Side: L R, LFE) 48 KHz (DTS Core: 5.1 / 48 kHz / 1509 kbps / 24-bit) |AVO_Гоблин|
Аудио: DТS-HD MA, 3641 kbps, 5.1 (Front: L C R, Side: L R, LFE) 48 KHz (DTS Core: 5.1 / 48 kHz / 1509 kbps / 24-bit) |AVO_Гоблин_2|
Аудио: DТS, 768 kbps, 3/2 (L,C,R,l,r) + LFE ch, 24-bit, 48 KHz |AVO_Ю. Сербин|
Аудио: DТS-HD MA, 4085 kbps, 5.1 (Front: L C R, Side: L R, LFE) 48 KHz (DTS Core: 5.1 / 48 kHz / 1509 kbps / 24-bit) |Original|
Формат субтитров: softsub (SRT)
Главы: есть-

MediaInfo

Формат : Matroska
Версия формата : Version 2
Размер файла : 33,4 Гбайт
Продолжительность : 1 ч. 47 м.
Режим общего битрейта : Переменный
Общий поток : 44,5 Мбит/сек
Название фильма : Карты, деньги, два ствола_BDRemux
Дата кодирования : UTC 2013-11-10 19:24:55
Программа кодирования : mkvmerge v5.5.0 ('Healer') built on Apr 24 2012 23:47:03
Библиотека кодирования : libebml v1.2.3 + libmatroska v1.3.0
Видео
Идентификатор : 1
Формат : VC-1
Профиль формата : AP@L3
Идентификатор кодека : WVC1
Идентификатор кодека/Подсказка : Microsoft
Продолжительность : 1 ч. 47 м.
Битрейт : 35,8 Мбит/сек
Ширина : 1920 пикселей
Высота : 1080 пикселей
Соотношение сторон : 16:9
Частота кадров : 23,976 кадра/сек
Субдискретизация насыщенности : 4:2:0
Битовая глубина : 8 бит
Тип развёртки : Прогрессивная
Метод сжатия : С потерями
Бит/(Пиксели*Кадры) : 0.720
Размер потока : 26,9 Гбайт (80%)
Заголовок : Lock, Stock and Two Smoking Barrels
Язык : English
Default : Да
Forced : Нет
Аудио #1
Идентификатор : 2
Формат : AC-3
Формат/Информация : Audio Coding 3
Расширение режима : CM (complete main)
Параметр Endianness формата : Big
Идентификатор кодека : A_AC3
Продолжительность : 1 ч. 47 м.
Вид битрейта : Постоянный
Битрейт : 640 Кбит/сек
Каналы : 6 каналов
Расположение каналов : Front: L C R, Side: L R, LFE
Частота : 48,0 КГц
Битовая глубина : 16 бит
Метод сжатия : С потерями
Размер потока : 492 Мбайт (1%)
Заголовок : Киномания
Язык : Russian
Default : Да
Forced : Нет
Аудио #2
Идентификатор : 3
Формат : DTS
Формат/Информация : Digital Theater Systems
Профиль формата : MA / Core
Идентификатор кодека : A_DTS
Продолжительность : 1 ч. 47 м.
Вид битрейта : Переменный
Битрейт : 2368 Кбит/сек / 1510 Кбит/сек
Каналы : 6 каналов
Расположение каналов : Front: L C R, Side: L R, LFE
Частота : 48,0 КГц
Битовая глубина : 24 бит
Метод сжатия : Без потерь / Lossy
Заголовок : Гоблин_1
Язык : Russian
Default : Нет
Forced : Нет
Аудио #3
Идентификатор : 4
Формат : DTS
Формат/Информация : Digital Theater Systems
Профиль формата : MA / Core
Идентификатор кодека : A_DTS
Продолжительность : 1 ч. 47 м.
Вид битрейта : Переменный
Битрейт : 1561 Кбит/сек / 1510 Кбит/сек
Каналы : 6 каналов
Расположение каналов : Front: L C R, Side: L R, LFE
Частота : 48,0 КГц
Битовая глубина : 24 бит
Метод сжатия : Без потерь / Lossy
Заголовок : Гоблин_2
Язык : Russian
Default : Нет
Forced : Нет
Аудио #4
Идентификатор : 5
Формат : DTS
Формат/Информация : Digital Theater Systems
Идентификатор кодека : A_DTS
Продолжительность : 1 ч. 47 м.
Вид битрейта : Постоянный
Битрейт : 755 Кбит/сек
Каналы : 6 каналов
Расположение каналов : Front: L C R, Side: L R, LFE
Частота : 48,0 КГц
Битовая глубина : 24 бит
Метод сжатия : С потерями
Размер потока : 580 Мбайт (2%)
Заголовок : Ю.Сербин
Язык : Russian
Default : Нет
Forced : Нет
Аудио #5
Идентификатор : 6
Формат : DTS
Формат/Информация : Digital Theater Systems
Профиль формата : MA / Core
Идентификатор кодека : A_DTS
Продолжительность : 1 ч. 47 м.
Вид битрейта : Переменный
Битрейт : 2482 Кбит/сек / 1510 Кбит/сек
Каналы : 6 каналов
Расположение каналов : Front: L C R, Side: L R, LFE
Частота : 48,0 КГц
Битовая глубина : 24 бит
Метод сжатия : Без потерь / Lossy
Заголовок : Оригинал
Язык : English
Default : Нет
Forced : Нет
Текст #1
Идентификатор : 7
Формат : UTF-8
Идентификатор кодека : S_TEXT/UTF8
Идентификатор кодека/Информация : UTF-8 Plain Text
Заголовок : Гоблин
Язык : Russian
Default : Да
Forced : Нет
Текст #2
Идентификатор : 8
Формат : UTF-8
Идентификатор кодека : S_TEXT/UTF8
Идентификатор кодека/Информация : UTF-8 Plain Text
Язык : Russian
Default : Нет
Forced : Нет
Текст #3
Идентификатор : 9
Формат : UTF-8
Идентификатор кодека : S_TEXT/UTF8
Идентификатор кодека/Информация : UTF-8 Plain Text
Язык : English
Default : Нет
Forced : Нет
Меню
00:00:00.000 : :Chapter 01
00:05:00.000 : :Chapter 02
00:10:00.000 : :Chapter 03
00:15:00.000 : :Chapter 04
00:20:00.000 : :Chapter 05
00:25:00.000 : :Chapter 06
00:30:00.000 : :Chapter 07
00:35:00.000 : :Chapter 08
00:40:00.000 : :Chapter 09
00:45:00.000 : :Chapter 10
00:50:00.000 : :Chapter 11
00:55:00.000 : :Chapter 12
01:00:00.000 : :Chapter 13
01:05:00.000 : :Chapter 14
01:10:00.000 : :Chapter 15
01:15:00.000 : :Chapter 16
01:20:00.000 : :Chapter 17
01:25:00.000 : :Chapter 18
01:30:00.000 : :Chapter 19
01:35:00.000 : :Chapter 20
01:40:00.000 : :Chapter 21
01:45:00.000 : :Chapter 22

Скриншоты


_________________
Показать сообщения:    

Текущее время: Сегодня 09:15

Часовой пояс: GMT



Вы не можете начинать темы
Вы не можете отвечать на сообщения
Вы не можете редактировать свои сообщения
Вы не можете удалять свои сообщения
Вы не можете голосовать в опросах
Вы не можете прикреплять файлы к сообщениям
Вы не можете скачивать файлы