Важное объявление!
У Нас Все раздачи мультитрекерные, при нуле пиров в релизах, можете смело вставать на закачку!
 
Автор Сообщение

adeei

[Профиль] [ЛС]

Картель / Kartellet--Год выпуска: 2014
Страна: Дания
Жанр: драма, триллер
Продолжительность:01:39:35
Перевод: Любительский одноголосый
Студия: Nordisk Film Production, TV2 Danmark, Radiator Film ApS
Субтитры: русские (отдельно)-В ролях: Андерс В. Бертельсен, Лене Мария Кристенсен, Лейф Сильвестр, Гитте Сием, Ларс Ранте, Беньямин Бое Расмуссен, Еспер Асхольт, Флемминг Эневольд-Режиссёр: Шарлота Сакс Боструп-Описание: Независимый электрик, водопроводчик контрактор и семьянин Ларс Хальбо решает вступить в борьбу за более крупные контракты. Там он становится конкурентом самых крупных игроков индустрии, которые, как оказалось, заключили между собой систему соглашений. По ней они постоянно делят между собой самые привлекательные контракты с высокими прибылями.
Они не собираются смиряться с появлением конкурента и хотят переманить его на свою сторону. Ларс отказывается присоединиться к системе картеля. Это ведёт к целой атаке на него, как на бизнес, так и на личную жизнь.

Описание скопировано с сайта kinopoisk- -Качество: BDRip
Формат: AVI
Видео кодек: XviD
Аудио кодек: AC3
Видео: 720x304, 1641 kbps, 24 fps, 0,312 Bits/(Pixel*Frame)
Аудио: AC3, 48 kHz, 448 kbps, 6 ch-

Рейтинг

Скриншоты

MI

General
Complete name : J:RipKartelletKartellet.2014.BDRip.by_Bathory.avi
Format : AVI
Format/Info : Audio Video Interleave
File size : 1.46 GiB
Duration : 1h 39mn
Overall bit rate : 2 096 Kbps
Video
ID : 0
Format : MPEG-4 Visual
Format profile : Advanced Simple@L5
Format settings, BVOP : 1
Format settings, QPel : No
Format settings, GMC : No warppoints
Format settings, Matrix : Custom
Codec ID : XVID
Codec ID/Hint : XviD
Duration : 1h 39mn
Bit rate : 1 641 Kbps
Width : 720 pixels
Height : 304 pixels
Display aspect ratio : 2.35:1
Frame rate : 24.000 fps
Color space : YUV
Chroma subsampling : 4:2:0
Bit depth : 8 bits
Scan type : Progressive
Compression mode : Lossy
Bits/(Pixel*Frame) : 0.312
Stream size : 1.14 GiB (78%)
Writing library : XviD 1.2.1 (UTC 2008-12-04)
Audio
ID : 1
Format : AC-3
Format/Info : Audio Coding 3
Mode extension : CM (complete main)
Format settings, Endianness : Big
Codec ID : 2000
Duration : 1h 39mn
Bit rate mode : Constant
Bit rate : 448 Kbps
Channel(s) : 6 channels
Channel positions : Front: L C R, Side: L R, LFE
Sampling rate : 48.0 KHz
Bit depth : 16 bits
Compression mode : Lossy
Stream size : 319 MiB (21%)
Alignment : Aligned on interleaves
Interleave, duration : 64 ms (1.54 video frames)
Interleave, preload duration : 192 ms
Title : Kartellet.2014.BDRemux - [0] Russian
-Источник:
 
Показать сообщения:    

Текущее время: Сегодня 18:10

Часовой пояс: GMT



Вы не можете начинать темы
Вы не можете отвечать на сообщения
Вы не можете редактировать свои сообщения
Вы не можете удалять свои сообщения
Вы не можете голосовать в опросах
Вы не можете прикреплять файлы к сообщениям
Вы не можете скачивать файлы