Важное объявление!
У Нас Все раздачи мультитрекерные, при нуле пиров в релизах, можете смело вставать на закачку!
 
Автор Сообщение

HUNTER

Стаж:
4 года 4 месяца
Сообщений:
56798

Репутация: 101

[+] [-]
Вне форума [Профиль] [ЛС]

Карпов-Год выпуска:2012
Страна:Россия
Жанр:Детектив, Криминал
Продолжительность:32 ~ 00:50:00
Кол-во серий:32 из 32
Перевод:не требуется
Субтитры:нет-В ролях:Владислав Котлярский, Степан Рожнов, Юлия Майборода, Максим Щёголев, Николай Козак, Анна Михайловская, Дмитрий Блажко, Дмитрий Мазуров, Сергей Карленков, Михаил Скачков, Юлия Селиванова, Артем Барсуков, Александр Сергеев (IV), Виктор Мютников, Константин Шелягин, Виктория Тарасова, Владислав Шкляев, Григорий Анашкин, Юлия Гусак, Арсений Перов, Андрей Сорока, Юрий Пономаренко, Андрей Перунов, Федор Румянцев, Анна Зверева, Андрей Березкин, Елена Калабина, Сергей Ланбамин, Ульяна Ворожейкина, Алексей Захаров, Максим Громов, Константин Столяров, Михаил Шкамаридин, Евгений Сафронов (II), Александр Синюков, Николай Зазуля
Режиссёр:Сергей Лесогоров, Мичислав Юзовский-Описание:О дальнейшей судьбе бывшего подполковника милиции Стаса Карпова. Освободившись после принудительного лечения, Карпов оказывается «у разбитого корыта». Не осталось ничего из того, чего он так долго добивался: ни денег, ни положения, ни власти. Бывшему менту выписан волчий билет, в полицию он не попадет даже на самую мелкую должность. Пытаясь хоть как-то прокормить себя, Карпов устраивается работать охранником на склад. Он смотрит на мир трезвыми глазами, не задурманенными властью. Однажды он видит объявление о вознаграждении за розыск преступника и понимает, что помнит того по старым делам, и может разыскать его…-Качество:SATRip
Формат:AVI
Видео кодек:XviD
Аудио кодек: mp3
Видео: 720x400, 25 fps, XviD MPEG-4 ~1600 kbps avg, ~0.227 bit/pixel
Аудио: MPEG Audio Layer 3 48000Hz stereo 128kbps-

MediaInfo

General
Complete name \Karpov\32.avi
Format : AVI
Format/Info : Audio Video Interleave
File size : 531 MiB
Duration : 41mn 46s
Overall bit rate : 1 775 Kbps
Writing library : VirtualDub build 34807/release
Video
ID : 0
Format : MPEG-4 Visual
Format profile : Advanced Simple@L5
Format settings, BVOP : 2
Format settings, QPel : No
Format settings, GMC : No warppoints
Format settings, Matrix : Default (H.263)
Muxing mode : Packed bitstream
Codec ID : XVID
Codec ID/Hint : XviD
Duration : 41mn 46s
Bit rate : 1 638 Kbps
Width : 720 pixels
Height : 400 pixels
Display aspect ratio : 16:9
Frame rate : 25.000 fps
Color space : YUV
Chroma subsampling : 4:2:0
Bit depth : 8 bits
Scan type : Progressive
Compression mode : Lossy
Bits/(Pixel*Frame) : 0.227
Stream size : 489 MiB (92%)
Writing library : XviD 64
Audio
ID : 1
Format : MPEG Audio
Format version : Version 1
Format profile : Layer 3
Mode : Joint stereo
Mode extension : MS Stereo
Codec ID : 55
Codec ID/Hint : MP3
Duration : 41mn 46s
Bit rate mode : Constant
Bit rate : 128 Kbps
Channel(s) : 2 channels
Sampling rate : 48.0 KHz
Compression mode : Lossy
Stream size : 38.2 MiB (7%)
Alignment : Split accross interleaves
Interleave, duration : 40 ms (1.00 video frame)
Interleave, preload duration : 500 ms

Скриншоты




_________________
Показать сообщения:    

Текущее время: Сегодня 07:44

Часовой пояс: GMT



Вы не можете начинать темы
Вы не можете отвечать на сообщения
Вы не можете редактировать свои сообщения
Вы не можете удалять свои сообщения
Вы не можете голосовать в опросах
Вы не можете прикреплять файлы к сообщениям
Вы не можете скачивать файлы