Важное объявление!
У Нас Все раздачи мультитрекерные, при нуле пиров в релизах, можете смело вставать на закачку!
 
Автор Сообщение

HUNTER

Стаж:
4 года 4 месяца
Сообщений:
56733

Репутация: 101

[+] [-]
Вне форума [Профиль] [ЛС]

Карлик Нос
Страна: Россия
Жанр: фэнтези
Продолжительность: 01:18:55
Год выпуска: 2003
Русские субтитры: есть
Режиссёр: Илья Максимов
Роли озвучивали: Альберт Асадуллин, Елена Шульман, Евгения Игумнова, Наталья Данилова ,Игорь Шибанов, Иван Краско, Виктор Сухоруков, Анатолий Петров, Татьяна Иванова, Алексей Гурьев...
Описание: В основу сюжета положена волшебная сказка Вильгельма Гауфа. Для того чтобы осуществить свои коварные планы, злой колдунье нужен ребенок с очень добрым сердцем. Обманом она заманивает к себе маленького Якоба — сына сапожника и зеленщицы.
Когда Якоб отказывается участвовать в ее сомнительных делах, ведьма превращает его в уродливого карлика. Но вечная сила любви и дружбы помогает героям сказки рассеять злые чары…
Семпл: http://multi-up.com/974996
Качество: DVDRip-AVC
Формат: MKV
Видео: 720x462 (1.662) @ 768x462, 25.000 fps, AVC, ~1520 Kbps, 0.183 bits/pixel
Аудио: 48.0 KHz, AC3, 6 ch, 448 Kbps
Субтитры: русские

Log
x264.exe: --pass 2 --bitrate 1520 --preset medium --ref 16 --deblock -1:-1 --merange 48 --bframes 10 --direct auto --b-adapt 2 --trellis 2 --no-fast-pskip --psy-rd 1.00:0.10 --partitions all --subme 11 --me umh --rc-lookahead 50 --sar 16:15 --stats "C:\Temp\0000.log" --output "C:\Temp\0000.264" "C:\Temp\0000.avs"
avs [info]: 720x462p 16:15 @ 25/1 fps (cfr)
x264 [info]: using SAR=16/15
x264 [info]: using cpu capabilities: MMX2 SSE2Fast SSEMisalign LZCNT
x264 [info]: profile High, level 4.0
x264 [info]: frame I:1579 Avg QP:11.35 size: 79394
x264 [info]: frame P:32406 Avg QP:16.01 size: 15319
x264 [info]: frame B:84392 Avg QP:20.44 size: 3291
x264 [info]: consecutive B-frames: 4.9% 5.2% 14.5% 41.1% 19.0% 10.6% 1.9% 0.8% 0.8% 0.5% 0.7%
x264 [info]: mb I I16..4: 15.0% 53.8% 31.2%
x264 [info]: mb P I16..4: 1.6% 5.2% 2.4% P16..4: 20.7% 17.4% 11.3% 3.7% 0.9% skip:36.8%
x264 [info]: mb B I16..4: 0.2% 0.6% 0.2% B16..8: 21.1% 9.3% 2.6% direct: 2.1% skip:63.9% L0:43.7% L1:47.0% BI: 9.3%
x264 [info]: 8x8 transform intra:55.8% inter:32.7%
x264 [info]: direct mvs spatial:92.9% temporal:7.1%
x264 [info]: coded y,uvDC,uvAC intra: 72.7% 81.3% 71.3% inter: 10.9% 11.5% 6.8%
x264 [info]: i16 v,h,dc,p: 53% 19% 13% 15%
x264 [info]: i8 v,h,dc,ddl,ddr,vr,hd,vl,hu: 16% 14% 27% 6% 6% 7% 7% 8% 10%
x264 [info]: i4 v,h,dc,ddl,ddr,vr,hd,vl,hu: 14% 10% 13% 10% 12% 11% 10% 10% 11%
x264 [info]: i8c dc,h,v,p: 47% 25% 18% 10%
x264 [info]: Weighted P-Frames: Y:1.9% UV:1.1%
x264 [info]: ref P L0: 47.2% 4.8% 15.7% 7.1% 4.8% 4.4% 3.3% 2.5% 1.8% 1.7% 1.3% 1.2% 1.1% 1.1% 1.0% 0.9%
x264 [info]: ref B L0: 70.1% 11.2% 5.6% 2.9% 2.2% 1.6% 1.6% 0.9% 0.8% 0.8% 0.7% 0.5% 0.5% 0.3% 0.2%
x264 [info]: ref B L1: 89.8% 10.2%
x264 [info]: kb/s:1519.79
encoded 118377 frames, 9.23 fps, 1519.79 kb/s
СравнениеПодробные технические данные
GeneralUnique ID : 227391242230417192776977879642714609311 (0xAB11F5D2F6A663759D164A073137169F)Complete name : D:\Карлик нос.mkvFormat : MatroskaFormat version : Version 4 / Version 2File size : 1.09 GiBDuration : 1h 18mnOverall bit rate : 1 970 KbpsEncoded date : UTC 2014-05-20 09:59:19Writing application : mkvmerge v6.9.1 ('Blue Panther') 64bit built on Apr 18 2014 18:23:38Writing library : libebml v1.3.0 + libmatroska v1.4.1
VideoID : 1Format : AVCFormat/Info : Advanced Video CodecFormat profile : High@L4.0Format settings, CABAC : YesFormat settings, ReFrames : 16 framesCodec ID : V_MPEG4/ISO/AVCDuration : 1h 18mnBit rate : 1 520 KbpsWidth : 720 pixelsHeight : 462 pixelsDisplay aspect ratio : 1.662Frame rate mode : ConstantFrame rate : 25.000 fpsColor space : YUVChroma subsampling : 4:2:0Bit depth : 8 bitsScan type : ProgressiveBits/(Pixel*Frame) : 0.183Stream size : 837 MiB (75%)Writing library : x264 core 130 r2273 b3065e6Encoding settings : cabac=1 / ref=16 / deblock=1:-1:-1 / analyse=0x3:0x133 / me=umh / subme=11 / psy=1 / psy_rd=1.00:0.10 / mixed_ref=1 / me_range=48 / chroma_me=1 / trellis=2 / 8x8dct=1 / cqm=0 / deadzone=21,11 / fast_pskip=0 / chroma_qp_offset=-3 / threads=6 / lookahead_threads=1 / sliced_threads=0 / nr=0 / decimate=1 / interlaced=0 / bluray_compat=0 / constrained_intra=0 / bframes=10 / b_pyramid=2 / b_adapt=2 / b_bias=0 / direct=3 / weightb=1 / open_gop=0 / weightp=2 / keyint=250 / keyint_min=25 / scenecut=40 / intra_refresh=0 / rc_lookahead=50 / rc=2pass / mbtree=1 / bitrate=1520 / ratetol=1.0 / qcomp=0.60 / qpmin=0 / qpmax=69 / qpstep=4 / cplxblur=20.0 / qblur=0.5 / ip_ratio=1.40 / aq=1:1.00Default : YesForced : No
AudioID : 2Format : AC-3Format/Info : Audio Coding 3Mode extension : CM (complete main)Format settings, Endianness : BigCodec ID : A_AC3Duration : 1h 18mnBit rate mode : ConstantBit rate : 448 KbpsChannel(s) : 6 channelsChannel positions : Front: L C R, Side: L R, LFESampling rate : 48.0 KHzBit depth : 16 bitsCompression mode : LossyStream size : 253 MiB (23%)Language : RussianDefault : YesForced : No
TextID : 3Format : UTF-8Codec ID : S_TEXT/UTF8Codec ID/Info : UTF-8 Plain TextLanguage : RussianDefault : NoForced : No
Menu00:00:00.000 : :Chapter 0100:01:33.880 : :Chapter 0200:05:17.160 : :Chapter 0300:08:26.040 : :Chapter 0400:11:00.400 : :Chapter 0500:15:48.760 : :Chapter 0600:20:38.080 : :Chapter 0700:25:18.680 : :Chapter 0800:28:00.880 : :Chapter 0900:31:38.280 : :Chapter 1000:36:25.040 : :Chapter 1100:40:08.760 : :Chapter 1200:43:27.080 : :Chapter 1300:48:36.720 : :Chapter 1400:55:07.360 : :Chapter 1500:59:31.000 : :Chapter 1601:03:10.240 : :Chapter 1701:08:03.480 : :Chapter 1801:10:42.680 : :Chapter 1901:15:19.120 : :Chapter 20
Скриншоты

_________________
Показать сообщения:    

Текущее время: Сегодня 23:57

Часовой пояс: GMT



Вы не можете начинать темы
Вы не можете отвечать на сообщения
Вы не можете редактировать свои сообщения
Вы не можете удалять свои сообщения
Вы не можете голосовать в опросах
Вы не можете прикреплять файлы к сообщениям
Вы не можете скачивать файлы