Важное объявление!
У Нас Все раздачи мультитрекерные, при нуле пиров в релизах, можете смело вставать на закачку!
 
Автор Сообщение

HUNTER

Стаж:
4 года 4 месяца
Сообщений:
56809

Репутация: 101

[+] [-]
Вне форума [Профиль] [ЛС]

Карапузы встречаются с Торнберри
Rugrats Go Wild
Страна: США
Жанр: мультфильм, комедия, приключения, семейный
Продолжительность: 01:20:49
Год выпуска: 2003-Перевод: Профессиональный (Дублированный)
Перевод: Профессиональный (Многоголосый закадровый)
Русские субтитры: нет
Режиссёр: Джон Энг, Нортон Вирген / John Eng, Norton Virgien-Роли озвучивали: Элизабет Дэйли, Нэнси Картрайт, Кэт Сауси, Дайонн Квон, Шерил Чейз, Тим Карри, Джо Аляски, Тресс МакНилл, Майкл Белл, Мелани Чартофф
Роли дублировали: Татьяна Весёлкина, Никита Прозоровский-Описание: В этом мультике находчивые аниматоры «подружили» героев своих самых известных кинопроектов — неугомонных карапузов и славную семейку Торнберри! Ваши любимые карапузы отбывают в экзотическое путешествие! Жить без приключений грудняки категорически не желают, а приключения явно неравнодушны к забавным крошкам.
После того, как судно, на котором плыли карапузы «благополучно» затонуло, компания детишек-непосед высаживается… на необитаемый остров! Но самое интересное впереди: выяснилось, что крошечные коллеги Робинзона Крузо оказались на дивном тропическом острове не одни! Кто, как вы думаете, составит карапузам «достойную» компанию и не даст скучать ни минуты? Ну, конечно же, дикая семейка Торнберри в полном составе!-Релиз: | | -Качество: WEB-DLRip
Формат: AVI
Видео: 688x288 (2.39:1), 23,976 fps, XviD 65 ~1 155 kbps avg, 0.24 bit/pixel
Аудио: 48.0 kHz, MPEG Layer 3, 2 ch, ~128 kbps |DUB|
Аудио: 48.0 kHz, MPEG Layer 3, 2 ch, ~128 kbps |MVO| отдельно
Субтитры: отсутствуют

MI


Общее
Полное имя : E:\incarcare\rip gata\Rugrats Go Wild.2003.WEB-DLRip.747\Rugrats Go Wild.2003.WEB-DL.avi
Формат : AVI
Формат/Информация : Audio Video Interleave
Размер файла : 747 Мбайт
Продолжительность : 1 ч. 20 м.
Общий поток : 1293 Кбит/сек
Программа кодирования : VirtualDubMod 1.5.10.2 (build 2540/release)
Библиотека кодирования : VirtualDubMod build 2540/release
Видео
Идентификатор : 0
Формат : MPEG-4 Visual
Профиль формата : Advanced Simple@L5
Параметр BVOP формата : 1
Параметр QPel формата : Нет
Параметр GMC формата : Без точки перехода
Параметр матрицы формата : Выборочная
Идентификатор кодека : XVID
Идентификатор кодека/Подсказка : XviD
Продолжительность : 1 ч. 20 м.
Битрейт : 1155 Кбит/сек
Ширина : 688 пикселей
Высота : 288 пикселей
Соотношение сторон : 2,40:1
Частота кадров : 23,976 кадра/сек
Цветовое пространство : YUV
Субдискретизация насыщенности : 4:2:0
Битовая глубина : 8 бит
Тип развёртки : Прогрессивная
Метод сжатия : С потерями
Бит/(Пиксели*Кадры) : 0.243
Размер потока : 668 Мбайт (89%)
Библиотека кодирования : XviD 65
Аудио
Идентификатор : 1
Формат : MPEG Audio
Версия формата : Version 1
Профиль формата : Layer 3
Идентификатор кодека : 55
Идентификатор кодека/Подсказка : MP3
Продолжительность : 1 ч. 20 м.
Вид битрейта : Постоянный
Битрейт : 128 Кбит/сек
Каналы : 2 канала
Частота : 48,0 КГц
Метод сжатия : С потерями
Размер потока : 74,0 Мбайт (10%)
Выравнивание : Соединение по промежуткам
Продолжительность промежутка : 42 мс. (1,00 видеокадр)
Время предзагрузки промежутка : 504 мс.

Скриншоты


_________________
Показать сообщения:    

Текущее время: Сегодня 17:03

Часовой пояс: GMT



Вы не можете начинать темы
Вы не можете отвечать на сообщения
Вы не можете редактировать свои сообщения
Вы не можете удалять свои сообщения
Вы не можете голосовать в опросах
Вы не можете прикреплять файлы к сообщениям
Вы не можете скачивать файлы