Важное объявление!
У Нас Все раздачи мультитрекерные, при нуле пиров в релизах, можете смело вставать на закачку!
 
Автор Сообщение

HUNTER

Стаж:
4 года 4 месяца
Сообщений:
56719

Репутация: 101

[+] [-]
Вне форума [Профиль] [ЛС]

Карапузы встречаются с Торнберри
Rugrats Go Wild
Страна: США
Жанр: мультфильм, комедия, приключения, семейный
Продолжительность: 01:20:49
Год выпуска: 2003-Перевод: Профессиональный (Дублированный)
Перевод: Профессиональный (Многоголосый закадровый)
Русские субтитры: нет
Режиссёр: Джон Энг, Нортон Вирген / John Eng, Norton Virgien-Роли озвучивали: Элизабет Дэйли, Нэнси Картрайт, Кэт Сауси, Дайонн Квон, Шерил Чейз, Тим Карри, Джо Аляски, Тресс МакНилл, Майкл Белл, Мелани Чартофф
Роли дублировали: Татьяна Весёлкина, Никита Прозоровский-Описание: В этом мультике находчивые аниматоры «подружили» героев своих самых известных кинопроектов — неугомонных карапузов и славную семейку Торнберри! Ваши любимые карапузы отбывают в экзотическое путешествие! Жить без приключений грудняки категорически не желают, а приключения явно неравнодушны к забавным крошкам.
После того, как судно, на котором плыли карапузы «благополучно» затонуло, компания детишек-непосед высаживается… на необитаемый остров! Но самое интересное впереди: выяснилось, что крошечные коллеги Робинзона Крузо оказались на дивном тропическом острове не одни! Кто, как вы думаете, составит карапузам «достойную» компанию и не даст скучать ни минуты? Ну, конечно же, дикая семейка Торнберри в полном составе!-Релиз: | | -• Большое спасибо xfiles за Дубляж;
• Большое спасибо saylione за исходник WEB-DL;
• WEB-DL и звуком -Azureus--Качество: WEB-DLRip
Формат: AVI
Видео: 720x304 (2.37:1), 23,976 fps, XviD 65 ~2 193 kbps avg, 0.42 bit/pixel
Аудио: 48 kHz, AC3 Dolby Digital, 2/0 (L,R) ch, ~192 kbps |DUB|
Аудио: 48 kHz, AC3 Dolby Digital, 2/0 (L,R) ch, ~192 kbps |MVO|
Аудио: 48 kHz, AC3 Dolby Digital, 3/2 (L,C,R,l,r) + LFE ch, ~384 kbps avg |ENG| отдельно
Субтитры: English [srt]

MI


Общее
Полное имя : E:\incarcare\rip gata\Rugrats Go Wild.2003.WEB-DLRip\Rugrats Go Wild.2003.WEB-DLRip.avi
Формат : AVI
Формат/Информация : Audio Video Interleave
Размер файла : 1,46 Гбайт
Продолжительность : 1 ч. 20 м.
Общий поток : 2592 Кбит/сек
Программа кодирования : VirtualDubMod 1.5.10.2 (build 2540/release)
Библиотека кодирования : VirtualDubMod build 2540/release
Видео
Идентификатор : 0
Формат : MPEG-4 Visual
Профиль формата : Advanced Simple@L5
Параметр BVOP формата : 1
Параметр QPel формата : Нет
Параметр GMC формата : Без точки перехода
Параметр матрицы формата : Выборочная
Идентификатор кодека : XVID
Идентификатор кодека/Подсказка : XviD
Продолжительность : 1 ч. 20 м.
Битрейт : 2193 Кбит/сек
Ширина : 720 пикселей
Высота : 304 пикселя
Соотношение сторон : 2,35:1
Частота кадров : 23,976 кадра/сек
Цветовое пространство : YUV
Субдискретизация насыщенности : 4:2:0
Битовая глубина : 8 бит
Тип развёртки : Прогрессивная
Метод сжатия : С потерями
Бит/(Пиксели*Кадры) : 0.418
Размер потока : 1,24 Гбайт (85%)
Библиотека кодирования : XviD 65
Аудио #1
Идентификатор : 1
Формат : AC-3
Формат/Информация : Audio Coding 3
Расширение режима : CM (complete main)
Параметр Endianness формата : Big
Идентификатор кодека : 2000
Продолжительность : 1 ч. 20 м.
Вид битрейта : Постоянный
Битрейт : 192 Кбит/сек
Каналы : 2 канала
Расположение каналов : Front: L R
Частота : 48,0 КГц
Метод сжатия : С потерями
Размер потока : 111 Мбайт (7%)
Выравнивание : Разделение по промежуткам
Продолжительность промежутка : 42 мс. (1,00 видеокадр)
Время предзагрузки промежутка : 500 мс.
Аудио #2
Идентификатор : 2
Формат : AC-3
Формат/Информация : Audio Coding 3
Расширение режима : CM (complete main)
Параметр Endianness формата : Big
Идентификатор кодека : 2000
Продолжительность : 1 ч. 20 м.
Вид битрейта : Постоянный
Битрейт : 192 Кбит/сек
Каналы : 2 канала
Расположение каналов : Front: L R
Частота : 48,0 КГц
Метод сжатия : С потерями
Размер потока : 111 Мбайт (7%)
Выравнивание : Разделение по промежуткам
Продолжительность промежутка : 42 мс. (1,00 видеокадр)
Время предзагрузки промежутка : 500 мс.

Скриншоты


_________________
Показать сообщения:    

Текущее время: Сегодня 04:04

Часовой пояс: GMT



Вы не можете начинать темы
Вы не можете отвечать на сообщения
Вы не можете редактировать свои сообщения
Вы не можете удалять свои сообщения
Вы не можете голосовать в опросах
Вы не можете прикреплять файлы к сообщениям
Вы не можете скачивать файлы