Важное объявление!
У Нас Все раздачи мультитрекерные, при нуле пиров в релизах, можете смело вставать на закачку!
 
Автор Сообщение

HUNTER

Стаж:
4 года 4 месяца
Сообщений:
56798

Репутация: 101

[+] [-]
Вне форума [Профиль] [ЛС]

Карапузы встречаются с Торнберри
Rugrats Go Wild
«Spike Speaks»
Год выпуска: 2003
Страна: США
Жанр: мультфильм, комедия, приключения, семейный
Продолжительность: 01:20:49
Перевод:
Профессиональный (Дублированный)
Профессиональный (Многоголосый закадровый)
субтитры: отсутствуют-Режиссёр: Джон Энг : John Eng, Нортон Вирген : Norton Virgien-Роли озвучивали: Элизабет Дэйли, Нэнси Картрайт, Кэт Сауси, Дайонн Квон, Шерил Чейз, Тим Карри, Джо Аляски, Тресс МакНилл, Майкл Белл, Мелани Чартофф
Роли дублировали: Татьяна Весёлкина, Никита Прозоровский-Описание: В этом мультике находчивые аниматоры «подружили» героев своих самых известных кинопроектов — неугомонных карапузов и славную семейку Торнберри! Ваши любимые карапузы отбывают в экзотическое путешествие! Жить без приключений грудняки категорически не желают, а приключения явно неравнодушны к забавным крошкам.
После того, как судно, на котором плыли карапузы «благополучно» затонуло, компания детишек-непосед высаживается… на необитаемый остров! Но самое интересное впереди: выяснилось, что крошечные коллеги Робинзона Крузо оказались на дивном тропическом острове не одни! Кто, как вы думаете, составит карапузам «достойную» компанию и не даст скучать ни минуты? Ну, конечно же, дикая семейка Торнберри в полном составе!- релиз: -- Большое спасибо xfiles за Дубляж;
- Большое спасибо saylione за исходник WEB-DL;
- Работа с WEB-DL и звуком -Azureus--Качество: WEB-DL 720p
Формат: MKV
Видео кодек: AVC
Аудио кодек: AC3
Видео: 1280x534 , 23,976 fps, ~3993 kbps avg, 0.244 bit/pixel
Аудио #1: [RUS] 48 kHz, AC3 Dolby Digital, 2/0 (L,R) ch, ~192 kbps kbps avg - DUB
Аудио #2: [RUS] 48 kHz, AC3 Dolby Digital, 2/0 (L,R) ch, ~192 kbps kbps avg - MVO
Аудио #3: [ENG] 48 kHz, AC3 Dolby Digital, 3/2 (L,C,R,l,r) + LFE ch, ~384 kbps avg
субтитры: английские
навигация по главам: 15 глав (не именные)

MediaInfo

Общее
Уникальный идентификатор : 250759101101309394868100519620443517063 (0xBCA67237CB83B3AE9ED61A483BCE3087)
Полное имя : D:\Im\Карапузы Встречают Торнберри\Rugrats Go Wild.2003.WEB-DL 720p.mkv
Формат : Matroska
Версия формата : Version 4 / Version 2
Размер файла : 2,74 Гбайт
Продолжительность : 1 ч. 20 м.
Общий поток : 4857 Кбит/сек
Название фильма : Rugrats Go Wild.2003.WEB-DL 720p -Azureus-
Дата кодирования : UTC 2015-03-05 12:06:13
Программа кодирования : mkvmerge v7.5.0 ('Glass Culture') 32bit built on Jan 4 2015 16:37:25
Библиотека кодирования : libebml v1.3.1 + libmatroska v1.4.2
DURATION : 01:20:49.312000000
NUMBER_OF_FRAMES : 151541
NUMBER_OF_BYTES : 116383488
_STATISTICS_WRITING_APP : mkvmerge v7.5.0 ('Glass Culture') 32bit built on Jan 4 2015 16:37:25
_STATISTICS_WRITING_DATE_UTC : 2015-03-05 12:06:13
_STATISTICS_TAGS : BPS DURATION NUMBER_OF_FRAMES NUMBER_OF_BYTES
Видео
Идентификатор : 1
Формат : AVC
Формат/Информация : Advanced Video Codec
Профиль формата : Main@L3.1
Параметр CABAC формата : Нет
Параметр ReFrames формата : 2 кадра
Идентификатор кодека : V_MPEG4/ISO/AVC
Продолжительность : 1 ч. 20 м.
Битрейт : 3993 Кбит/сек
Ширина : 1280 пикселей
Высота : 534 пикселя
Соотношение сторон : 2,40:1
Частота кадров : 23,976 кадра/сек
Цветовое пространство : YUV
Субдискретизация насыщенности : 4:2:0
Битовая глубина : 8 бит
Тип развёртки : Прогрессивная
Бит/(Пиксели*Кадры) : 0.244
Размер потока : 2,25 Гбайт (82%)
Default : Да
Forced : Нет
Основные цвета : BT.709-5, BT.1361, IEC 61966-2-4, SMPTE RP177
Характеристики трансфера : BT.709-5, BT.1361
Коэффициенты матрицы : BT.709-5, BT.1361, IEC 61966-2-4 709, SMPTE RP177
Аудио #1
Идентификатор : 2
Формат : AC-3
Формат/Информация : Audio Coding 3
Расширение режима : CM (complete main)
Идентификатор кодека : A_AC3
Продолжительность : 1 ч. 20 м.
Вид битрейта : Постоянный
Битрейт : 192 Кбит/сек
Каналы : 2 канала
Расположение каналов : Front: L R
Частота : 48,0 КГц
Битовая глубина : 16 бит
Метод сжатия : С потерями
Размер потока : 111 Мбайт (4%)
Заголовок : DUB
Язык : Russian
Default : Да
Forced : Нет
Аудио #2
Идентификатор : 3
Формат : AC-3
Формат/Информация : Audio Coding 3
Расширение режима : CM (complete main)
Идентификатор кодека : A_AC3
Продолжительность : 1 ч. 20 м.
Вид битрейта : Постоянный
Битрейт : 192 Кбит/сек
Каналы : 2 канала
Расположение каналов : Front: L R
Частота : 48,0 КГц
Битовая глубина : 16 бит
Метод сжатия : С потерями
Размер потока : 111 Мбайт (4%)
Заголовок : MVO
Язык : Russian
Default : Нет
Forced : Нет
Аудио #3
Идентификатор : 4
Формат : AC-3
Формат/Информация : Audio Coding 3
Расширение режима : CM (complete main)
Идентификатор кодека : A_AC3
Продолжительность : 1 ч. 20 м.
Вид битрейта : Постоянный
Битрейт : 384 Кбит/сек
Каналы : 6 каналов
Расположение каналов : Front: L C R, Side: L R, LFE
Частота : 48,0 КГц
Битовая глубина : 16 бит
Метод сжатия : С потерями
Размер потока : 222 Мбайт (8%)
Заголовок : ENG
Язык : English
Default : Нет
Forced : Нет
Текст
Идентификатор : 5
Формат : UTF-8
Идентификатор кодека : S_TEXT/UTF8
Идентификатор кодека/Информация : UTF-8 Plain Text
Заголовок : Eng Sub
Язык : English
Default : Нет
Forced : Нет
Меню
00:00:00.000 : en:Chapter 1
00:04:53.000 : en:Chapter 2
00:09:43.000 : en:Chapter 3
00:12:12.000 : en:Chapter 4
00:16:53.000 : en:Chapter 5
00:21:14.000 : en:Chapter 6
00:27:07.000 : en:Chapter 7
00:32:45.000 : en:Chapter 8
00:40:04.000 : en:Chapter 9
00:47:47.000 : en:Chapter 10
00:53:14.000 : en:Chapter 11
00:58:32.000 : en:Chapter 12
01:05:21.000 : en:Chapter 13
01:09:43.000 : en:Chapter 14
01:13:04.000 : en:Chapter 15
____________________________________________
Стою на раздаче до 5 дней.
Просьба скачавшим как можно дольше не покидать раздачу!
ВСЕМ ПРИЯТНОГО ПРОСМОТРА!_________________________________________

_________________
Показать сообщения:    

Текущее время: Сегодня 01:06

Часовой пояс: GMT



Вы не можете начинать темы
Вы не можете отвечать на сообщения
Вы не можете редактировать свои сообщения
Вы не можете удалять свои сообщения
Вы не можете голосовать в опросах
Вы не можете прикреплять файлы к сообщениям
Вы не можете скачивать файлы